<?xml version="1.0" standalone="no"?>
<!DOCTYPE svg PUBLIC "-//W3C//DTD SVG 1.1//EN" "http://www.w3.org/Graphics/SVG/1.1/DTD/svg11.dtd" >
<svg xmlns="http://www.w3.org/2000/svg" xmlns:xlink="http://www.w3.org/1999/xlink" version="1.1">
<metadata>
Created by FontForge 20170731 at Thu Mar  3 18:03:37 2011
 By Aleksey,,,
Digitized data copyright (c) 2010, Google Corporation.
</metadata>
<defs>
<font id="DroidArabicKufi-Bold" horiz-adv-x="0" >
  <font-face 
    font-family="Droid Arabic Kufi"
    font-weight="700"
    font-stretch="normal"
    units-per-em="2048"
    panose-1="2 11 8 6 3 8 4 2 2 4"
    ascent="1638"
    descent="-410"
    bbox="-651 -1260 3592 2625"
    underline-thickness="102"
    underline-position="-307"
    unicode-range="U+0020-FEFC"
  />
<missing-glyph horiz-adv-x="1229" 
d="M102 -362v1806h1024v-1806h-1024zM217 -248h795v1577h-795v-1577z" />
    <glyph glyph-name="allah" unicode="&#x627;&#xfedf;&#xfee0;&#xfeea;" horiz-adv-x="3226" arabic-form="isolated" 
d="M731 0q-284 0 -441 132.5t-157 369.5q0 151 72 268t206.5 180.5t319.5 63.5h57v100h308v-868h342v1083h305v-1083h397v1083h305v-1329h-1714zM2716 1556h305v-1556h-305v1556zM791 246v522h-54q-140 0 -215.5 -69t-75.5 -199q0 -122 74 -188t213 -66h58zM1378 1436
q-85 0 -131.5 52.5t-46.5 145.5v129h127v-96q0 -56 15 -84.5t57 -28.5q41 0 60.5 21t19.5 74v166h116v-125q0 -45 16 -70t62 -25q42 0 58 22t16 91v137h127v-170q0 -94 -48.5 -146t-137.5 -52q-94 0 -144 61q-51 -102 -166 -102zM1479 2294h116v-316h-116v316z" />
    <glyph glyph-name="riyal" unicode="&#x631;&#xfef3;&#xfe8e;&#x644;" horiz-adv-x="3766" arabic-form="isolated" 
d="M690 -492q-171 0 -297.5 72t-193 202.5t-66.5 299.5q0 116 28 236.5t77 216.5h270q-32 -110 -51 -230.5t-19 -224.5q0 -149 75 -237.5t198 -88.5h61q158 0 232.5 85.5t74.5 240.5v1476h305v-1484q0 -564 -604 -564h-90zM1733 1556h305v-1310h502v768h305v-1014h-1112
v1556zM3164 -492q-105 0 -191.5 24.5t-185.5 90.5l123 199q54 -34 95.5 -47t99.5 -13q82 0 132 62.5t50 157.5v1032h305v-1047q0 -211 -116.5 -335t-311.5 -124zM2179 -512q-61 0 -99 38t-38 109q0 72 36.5 110t100.5 38q63 0 99 -39t36 -109t-37 -108.5t-98 -38.5z
M2527 -512q-61 0 -99 38t-38 109q0 72 36.5 110t100.5 38q63 0 99 -39t36 -109t-37 -108.5t-98 -38.5z" />
    <glyph glyph-name="uni06440622.isol" unicode="&#xfedf;&#xfe82;" horiz-adv-x="1462" arabic-form="isolated" 
d="M92 246h371l-264 1034h319l244 -1034h14q102 0 149.5 56.5t47.5 180.5v1073h305v-1097q0 -209 -115.5 -334t-318.5 -125h-752v246zM12 1386q13 129 69 196.5t142 67.5q42 0 82.5 -17.5t78.5 -39t72.5 -39t63.5 -17.5q45 0 68 26.5t39 88.5h104q-10 -123 -65 -193.5
t-146 -70.5q-40 0 -79.5 17.5t-77.5 38.5t-73.5 38.5t-66.5 17.5q-45 0 -68.5 -26.5t-37.5 -87.5h-105z" />
    <glyph glyph-name="uni06440622.fina" unicode="&#xfee0;&#xfe82;" horiz-adv-x="1534" arabic-form="final" 
d="M1544 246q10 0 10 -8v-228q0 -10 -10 -10h-1452v246h371l-264 1034h319l244 -1034h211v1310h305v-1310h266zM12 1386q13 129 69 196.5t142 67.5q42 0 82.5 -17.5t78.5 -39t72.5 -39t63.5 -17.5q45 0 68 26.5t39 88.5h104q-10 -123 -65 -193.5t-146 -70.5
q-40 0 -79.5 17.5t-77.5 38.5t-73.5 38.5t-66.5 17.5q-45 0 -68.5 -26.5t-37.5 -87.5h-105z" />
    <glyph glyph-name="uni06440623.isol" unicode="&#xfedf;&#xfe84;" horiz-adv-x="1462" arabic-form="isolated" 
d="M92 246h371l-264 1034h319l244 -1034h14q102 0 149.5 56.5t47.5 180.5v1073h305v-1097q0 -209 -115.5 -334t-318.5 -125h-752v246zM112 1504l117 19q-40 20 -66 55.5t-26 83.5q0 88 61 137t164 49q101 0 168 -37l-41 -104q-52 26 -111 26q-44 0 -71 -26t-27 -72
q0 -32 18 -56t44 -36l36 6q104 16 166 21v-119q-73 -5 -241.5 -25t-190.5 -26v104z" />
    <glyph glyph-name="uni06440623.fina" unicode="&#xfee0;&#xfe84;" horiz-adv-x="1534" arabic-form="final" 
d="M1544 246q10 0 10 -8v-228q0 -10 -10 -10h-1452v246h371l-264 1034h319l244 -1034h211v1310h305v-1310h266zM112 1504l117 19q-40 20 -66 55.5t-26 83.5q0 88 61 137t164 49q101 0 168 -37l-41 -104q-52 26 -111 26q-44 0 -71 -26t-27 -72q0 -32 18 -56t44 -36l36 6
q104 16 166 21v-119q-73 -5 -241.5 -25t-190.5 -26v104z" />
    <glyph glyph-name="uni06440625.isol" unicode="&#xfedf;&#xfe88;" horiz-adv-x="1462" arabic-form="isolated" 
d="M92 246h371l-264 1034h319l244 -1034h14q102 0 149.5 56.5t47.5 180.5v1073h305v-1097q0 -209 -115.5 -334t-318.5 -125h-752v246zM379 -500l117 19q-41 20 -67 55.5t-26 83.5q0 86 61 136t165 50q101 0 168 -37l-41 -104q-57 27 -111 27q-44 0 -71 -26.5t-27 -72.5
q0 -61 61 -92l37 6q100 16 166 21v-119q-73 -5 -241.5 -25t-190.5 -26v104z" />
    <glyph glyph-name="uni06440625.fina" unicode="&#xfee0;&#xfe88;" horiz-adv-x="1534" arabic-form="final" 
d="M1544 246q10 0 10 -8v-228q0 -10 -10 -10h-1452v246h371l-264 1034h319l244 -1034h211v1310h305v-1310h266zM379 -500l117 19q-41 20 -67 55.5t-26 83.5q0 86 61 136t165 50q101 0 168 -37l-41 -104q-57 27 -111 27q-44 0 -71 -26.5t-27 -72.5q0 -61 61 -92l37 6
q100 16 166 21v-119q-73 -5 -241.5 -25t-190.5 -26v104z" />
    <glyph glyph-name="uni06440627.isol" unicode="&#xfedf;&#xfe8e;" horiz-adv-x="1462" arabic-form="isolated" 
d="M92 246h371l-264 1034h319l244 -1034h14q102 0 149.5 56.5t47.5 180.5v1073h305v-1097q0 -209 -115.5 -334t-318.5 -125h-752v246z" />
    <glyph glyph-name="uni06440627.fina" unicode="&#xfee0;&#xfe8e;" horiz-adv-x="1534" arabic-form="final" 
d="M1544 246q10 0 10 -8v-228q0 -10 -10 -10h-1452v246h371l-264 1034h319l244 -1034h211v1310h305v-1310h266z" />
    <glyph glyph-name="uni06440671.isol" unicode="&#xfedf;&#xfb51;" horiz-adv-x="1462" 
d="M92 246h371l-264 1034h319l244 -1034h14q102 0 149.5 56.5t47.5 180.5v1073h305v-1097q0 -209 -115.5 -334t-318.5 -125h-752v246zM96 1552h94q72 209 229 209q83 0 129.5 -55.5t46.5 -153.5v-115h-499v115zM491 1552q0 51 -19.5 71.5t-56.5 20.5q-38 0 -68 -26t-44 -66
h188z" />
    <glyph glyph-name="uni06440671.fina" unicode="&#xfee0;&#xfb51;" horiz-adv-x="1534" 
d="M1544 246q10 0 10 -8v-228q0 -10 -10 -10h-1452v246h371l-264 1034h319l244 -1034h211v1310h305v-1310h266zM96 1552h94q72 209 229 209q83 0 129.5 -55.5t46.5 -153.5v-115h-499v115zM491 1552q0 51 -19.5 71.5t-56.5 20.5q-38 0 -68 -26t-44 -66h188z" />
    <glyph glyph-name="uni0621" unicode="&#x621;" horiz-adv-x="1077" arabic-form="isolated" 
d="M133 178q111 29 195 41q-66 39 -105 112t-39 161q0 179 128 285t345 106q90 0 166.5 -16.5t122.5 -43.5l-61 -229q-77 43 -195 43q-94 0 -151.5 -46.5t-57.5 -146.5q0 -60 32.5 -108t84.5 -70q66 11 192 26t195 19v-248q-143 0 -420 -34t-432 -64v213z" />
    <glyph glyph-name="uni0622" unicode="&#x622;" horiz-adv-x="715" arabic-form="isolated" 
d="M205 1434h305v-1434h-305v1434zM6 1561q13 129 69 196.5t142 67.5q42 0 82.5 -17.5t78.5 -39t72.5 -39t63.5 -17.5q45 0 68 26.5t39 88.5h104q-10 -123 -65 -193.5t-146 -70.5q-40 0 -79.5 17.5t-77.5 38.5t-73.5 38.5t-66.5 17.5q-45 0 -68.5 -26.5t-37.5 -87.5h-105z
" />
    <glyph glyph-name="uni0623" unicode="&#x623;" horiz-adv-x="715" arabic-form="isolated" 
d="M205 1434h305v-1434h-305v1434zM123 1669l117 19q-40 20 -66 55.5t-26 83.5q0 88 61 137t164 49q101 0 168 -37l-41 -104q-52 26 -111 26q-44 0 -71 -26t-27 -72q0 -32 18 -56t44 -36l36 6q104 16 166 21v-119q-73 -5 -241.5 -25t-190.5 -26v104z" />
    <glyph glyph-name="uni0624" unicode="&#x624;" horiz-adv-x="1284" arabic-form="isolated" 
d="M569 -492q-139 0 -240.5 21.5t-195.5 77.5l119 223q83 -43 157 -60.5t154 -17.5q116 0 179 63.5t63 174.5v10h-203q-219 0 -337 124t-118 353q0 162 81 284.5t229 187.5t342 65h311v-1020q0 -233 -141.5 -359.5t-399.5 -126.5zM805 246v522h-66q-131 0 -204.5 -74
t-73.5 -209q0 -123 50 -181t153 -58h141zM424 1236l117 19q-40 20 -66 55.5t-26 83.5q0 88 61 137t164 49q101 0 168 -37l-41 -104q-52 26 -111 26q-44 0 -71 -26t-27 -72q0 -32 18 -56t44 -36l36 6q104 16 166 21v-119q-73 -5 -241.5 -25t-190.5 -26v104z" />
    <glyph glyph-name="uni0625" unicode="&#x625;" horiz-adv-x="715" arabic-form="isolated" 
d="M205 1556h305v-1556h-305v1556zM139 -500l117 19q-41 20 -67 55.5t-26 83.5q0 86 61 136t165 50q101 0 168 -37l-41 -104q-57 27 -111 27q-44 0 -71 -26.5t-27 -72.5q0 -61 61 -92l37 6q100 16 166 21v-119q-73 -5 -241.5 -25t-190.5 -26v104z" />
    <glyph glyph-name="uni0626" unicode="&#x626;" horiz-adv-x="1808" arabic-form="isolated" 
d="M545 -492q-117 0 -212 59.5t-147.5 166.5t-52.5 241q0 200 66 396h272q-26 -85 -34.5 -161t-8.5 -190q0 -70 34.5 -132.5t91.5 -98t118 -35.5h354q159 0 232 29t73 94q0 42 -27.5 75.5t-92.5 73.5q-86 54 -197.5 129.5t-154 133.5t-42.5 127q0 120 108.5 273.5t260.5 248
t291 94.5q48 0 97.5 -18.5t141.5 -77.5l-110 -223q-41 23 -80 39t-82 16q-54 0 -142.5 -57t-146 -125t-57.5 -119q0 -32 46.5 -75.5t135.5 -99.5q83 -52 175 -128t136.5 -145.5t44.5 -135.5q0 -188 -156.5 -281.5t-451.5 -93.5h-483zM323 712l117 19q-40 20 -66 55.5
t-26 83.5q0 88 61 137t164 49q101 0 168 -37l-41 -104q-52 26 -111 26q-44 0 -71 -26t-27 -72q0 -32 18 -56t44 -36l36 6q104 16 166 21v-119q-73 -5 -241.5 -25t-190.5 -26v104z" />
    <glyph glyph-name="uni0627" unicode="&#x627;" horiz-adv-x="715" arabic-form="isolated" 
d="M205 1556h305v-1556h-305v1556z" />
    <glyph glyph-name="uni0628" unicode="&#x628;" horiz-adv-x="1776" arabic-form="isolated" 
d="M541 0q-189 0 -298.5 110t-109.5 302q0 77 18 164.5t48 148.5h270q-31 -133 -31 -268q0 -95 53 -153t140 -58h665v768h306v-1014h-1061zM912 -512q-64 0 -101 39.5t-37 107.5q0 69 36.5 108.5t101.5 39.5q62 0 98.5 -39t36.5 -109q0 -68 -37.5 -107.5t-97.5 -39.5z" />
    <glyph glyph-name="uni0629" unicode="&#x629;" horiz-adv-x="1292" arabic-form="isolated" 
d="M643 -20q-250 0 -380 119t-130 352q0 159 65.5 294.5t182.5 212t268 76.5q139 0 253 -74t185.5 -212.5t71.5 -296.5q0 -243 -130 -357t-386 -114zM641 229q108 0 159.5 57.5t51.5 174.5q0 132 -62.5 229.5t-150.5 97.5t-149.5 -95t-61.5 -232q0 -118 52.5 -175t160.5 -57
zM444 1190q-63 0 -100 39.5t-37 107.5q0 69 36.5 108.5t100.5 39.5q63 0 99 -39t36 -109t-37 -108.5t-98 -38.5zM792 1190q-63 0 -100 39.5t-37 107.5q0 69 36.5 108.5t100.5 39.5t100 -39.5t36 -108.5q0 -68 -37.5 -107.5t-98.5 -39.5z" />
    <glyph glyph-name="uni062A" unicode="&#x62a;" horiz-adv-x="1776" arabic-form="isolated" 
d="M541 0q-189 0 -298.5 110t-109.5 302q0 77 18 164.5t48 148.5h270q-31 -133 -31 -268q0 -95 53 -153t140 -58h665v768h306v-1014h-1061zM690 1015q-63 0 -100 39.5t-37 107.5q0 69 36.5 108.5t100.5 39.5q63 0 99 -39t36 -109t-37 -108.5t-98 -38.5zM1038 1015
q-63 0 -100 39.5t-37 107.5q0 69 36.5 108.5t100.5 39.5t100 -39.5t36 -108.5q0 -68 -37.5 -107.5t-98.5 -39.5z" />
    <glyph glyph-name="uni062B" unicode="&#x62b;" horiz-adv-x="1776" arabic-form="isolated" 
d="M541 0q-189 0 -298.5 110t-109.5 302q0 77 18 164.5t48 148.5h270q-31 -133 -31 -268q0 -95 53 -153t140 -58h665v768h306v-1014h-1061zM854 1345q-49 0 -82.5 31t-33.5 94q0 65 33.5 94.5t82.5 29.5q53 0 85 -33t32 -91q0 -56 -31.5 -90.5t-85.5 -34.5zM680 1015
q-63 0 -100 39.5t-37 107.5q0 69 36.5 108.5t100.5 39.5t100 -39.5t36 -108.5q0 -68 -37.5 -107.5t-98.5 -39.5zM1029 1015q-64 0 -101 39.5t-37 107.5q0 69 36.5 108.5t101.5 39.5q62 0 98.5 -39t36.5 -109q0 -68 -37.5 -107.5t-97.5 -39.5z" />
    <glyph glyph-name="uni062C" unicode="&#x62c;" horiz-adv-x="1399" arabic-form="isolated" 
d="M559 -668q-210 0 -338.5 116.5t-128.5 309.5q0 109 43.5 199.5t127 164t217.5 137t358 124.5q-32 97 -50 166q-31 121 -97.5 180t-176.5 59q-134 0 -305 -94l-109 226q99 52 228 83t250 31q407 0 475 -395q35 -193 81.5 -283.5t131.5 -154.5l-156 -201q-100 79 -166 172
q-247 -63 -347 -113.5t-153 -119t-53 -164.5q0 -86 64.5 -139.5t165.5 -53.5q137 0 301 43l34 -223q-199 -70 -397 -70zM705 -309q-64 0 -101 39.5t-37 107.5q0 69 36.5 108.5t101.5 39.5q62 0 98.5 -39t36.5 -109q0 -68 -37.5 -107.5t-97.5 -39.5z" />
    <glyph glyph-name="uni062D" unicode="&#x62d;" horiz-adv-x="1399" arabic-form="isolated" 
d="M559 -668q-210 0 -338.5 116.5t-128.5 309.5q0 109 43.5 199.5t127 164t217.5 137t358 124.5q-32 97 -50 166q-31 121 -97.5 180t-176.5 59q-134 0 -305 -94l-109 226q99 52 228 83t250 31q407 0 475 -395q35 -193 81.5 -283.5t131.5 -154.5l-156 -201q-100 79 -166 172
q-247 -63 -347 -113.5t-153 -119t-53 -164.5q0 -86 64.5 -139.5t165.5 -53.5q137 0 301 43l34 -223q-199 -70 -397 -70z" />
    <glyph glyph-name="uni062E" unicode="&#x62e;" horiz-adv-x="1399" arabic-form="isolated" 
d="M559 -668q-210 0 -338.5 116.5t-128.5 309.5q0 109 43.5 199.5t127 164t217.5 137t358 124.5q-32 97 -50 166q-31 121 -97.5 180t-176.5 59q-134 0 -305 -94l-109 226q99 52 228 83t250 31q407 0 475 -395q35 -193 81.5 -283.5t131.5 -154.5l-156 -201q-100 79 -166 172
q-247 -63 -347 -113.5t-153 -119t-53 -164.5q0 -86 64.5 -139.5t165.5 -53.5q137 0 301 43l34 -223q-199 -70 -397 -70zM531 1190q-64 0 -101 39.5t-37 107.5q0 69 36.5 108.5t101.5 39.5q62 0 98.5 -39t36.5 -109q0 -68 -37.5 -107.5t-97.5 -39.5z" />
    <glyph glyph-name="uni062F" unicode="&#x62f;" horiz-adv-x="1219" arabic-form="isolated" 
d="M92 246h684q-42 189 -102.5 305.5t-154 201t-228.5 140.5l115 287q274 -110 439.5 -339.5t239.5 -602.5v-238h-993v246z" />
    <glyph glyph-name="uni0630" unicode="&#x630;" horiz-adv-x="1219" arabic-form="isolated" 
d="M92 246h684q-42 189 -102.5 305.5t-154 201t-228.5 140.5l115 287q274 -110 439.5 -339.5t239.5 -602.5v-238h-993v246zM406 1340q-64 0 -101 39.5t-37 107.5q0 69 36.5 108.5t101.5 39.5q62 0 98.5 -39t36.5 -109q0 -68 -37.5 -107.5t-97.5 -39.5z" />
    <glyph glyph-name="uni0631" unicode="&#x631;" horiz-adv-x="897" arabic-form="isolated" 
d="M295 -492q-105 0 -192.5 25t-184.5 90l123 199q54 -34 95.5 -47t99.5 -13q82 0 132 62.5t50 157.5v1032h305v-1047q0 -211 -116.5 -335t-311.5 -124z" />
    <glyph glyph-name="uni0632" unicode="&#x632;" horiz-adv-x="897" arabic-form="isolated" 
d="M295 -492q-105 0 -192.5 25t-184.5 90l123 199q54 -34 95.5 -47t99.5 -13q82 0 132 62.5t50 157.5v1032h305v-1047q0 -211 -116.5 -335t-311.5 -124zM555 1190q-64 0 -101 39.5t-37 107.5q0 69 36.5 108.5t101.5 39.5q62 0 98.5 -39t36.5 -109q0 -68 -37.5 -107.5
t-97.5 -39.5z" />
    <glyph glyph-name="uni0633" unicode="&#x633;" horiz-adv-x="2890" arabic-form="isolated" 
d="M1559 246q102 0 149 57t47 180v371h305v-395q0 -50 -6 -92q51 -68 101.5 -94.5t128.5 -26.5h126v768h306v-1014h-426q-174 0 -322 154q-115 -154 -342 -154h-244q-37 -492 -602 -492h-90q-171 0 -297.5 72t-193 202.5t-66.5 299.5q0 116 28 236.5t77 216.5h270
q-32 -110 -51 -230.5t-19 -224.5q0 -149 75 -237.5t198 -88.5h61q158 0 232.5 85.5t74.5 240.5v774h305v-608h175z" />
    <glyph glyph-name="uni0634" unicode="&#x634;" horiz-adv-x="2890" arabic-form="isolated" 
d="M1559 246q102 0 149 57t47 180v371h305v-395q0 -50 -6 -92q51 -68 101.5 -94.5t128.5 -26.5h126v768h306v-1014h-426q-174 0 -322 154q-115 -154 -342 -154h-244q-37 -492 -602 -492h-90q-171 0 -297.5 72t-193 202.5t-66.5 299.5q0 116 28 236.5t77 216.5h270
q-32 -110 -51 -230.5t-19 -224.5q0 -149 75 -237.5t198 -88.5h61q158 0 232.5 85.5t74.5 240.5v774h305v-608h175zM1898 1520q-49 0 -82.5 31t-33.5 94q0 65 33.5 94.5t82.5 29.5q53 0 85 -33t32 -91q0 -56 -31.5 -90.5t-85.5 -34.5zM1724 1190q-63 0 -100 39.5t-37 107.5
q0 69 36.5 108.5t100.5 39.5t100 -39.5t36 -108.5q0 -68 -37.5 -107.5t-98.5 -39.5zM2073 1190q-64 0 -101 39.5t-37 107.5q0 69 36.5 108.5t101.5 39.5q62 0 98.5 -39t36.5 -109q0 -68 -37.5 -107.5t-97.5 -39.5z" />
    <glyph glyph-name="uni0635" unicode="&#x635;" horiz-adv-x="2601" arabic-form="isolated" 
d="M690 -492q-171 0 -297.5 72t-193 202.5t-66.5 299.5q0 116 28 236.5t77 216.5h270q-32 -110 -51 -230.5t-19 -224.5q0 -149 75 -237.5t198 -88.5h61q158 0 232.5 85.5t74.5 240.5v934h305v-359q187 379 555 379q252 0 380 -132.5t128 -409.5v-492h-1065
q-15 -242 -168 -367t-434 -125h-90zM2142 246v252q0 149 -68.5 219.5t-211.5 70.5q-277 0 -478 -382v-160h758z" />
    <glyph glyph-name="uni0636" unicode="&#x636;" horiz-adv-x="2601" arabic-form="isolated" 
d="M690 -492q-171 0 -297.5 72t-193 202.5t-66.5 299.5q0 116 28 236.5t77 216.5h270q-32 -110 -51 -230.5t-19 -224.5q0 -149 75 -237.5t198 -88.5h61q158 0 232.5 85.5t74.5 240.5v934h305v-359q187 379 555 379q252 0 380 -132.5t128 -409.5v-492h-1065
q-15 -242 -168 -367t-434 -125h-90zM2142 246v252q0 149 -68.5 219.5t-211.5 70.5q-277 0 -478 -382v-160h758zM1852 1190q-64 0 -101 39.5t-37 107.5q0 69 36.5 108.5t101.5 39.5q62 0 98.5 -39t36.5 -109q0 -68 -37.5 -107.5t-97.5 -39.5z" />
    <glyph glyph-name="uni0637" unicode="&#x637;" horiz-adv-x="1753" arabic-form="isolated" 
d="M1294 246v252q0 149 -68.5 219.5t-211.5 70.5q-276 0 -477 -382v-160h757zM41 246h190v1310h306v-901q187 379 555 379q251 0 379 -132.5t128 -409.5v-492h-1558v246z" />
    <glyph glyph-name="uni0638" unicode="&#x638;" horiz-adv-x="1753" arabic-form="isolated" 
d="M1294 246v252q0 149 -68.5 219.5t-211.5 70.5q-276 0 -477 -382v-160h757zM41 246h190v1310h306v-901q187 379 555 379q251 0 379 -132.5t128 -409.5v-492h-1558v246zM1010 1190q-64 0 -101 39.5t-37 107.5q0 69 36.5 108.5t101.5 39.5q62 0 98.5 -39t36.5 -109
q0 -68 -37.5 -107.5t-97.5 -39.5z" />
    <glyph glyph-name="uni0639" unicode="&#x639;" horiz-adv-x="1214" arabic-form="isolated" 
d="M600 -668q-210 0 -338.5 114.5t-128.5 301.5q0 229 260 408q-72 72 -126 182t-54 203q0 230 151.5 361.5t413.5 131.5q90 0 188.5 -20t155.5 -47l-86 -240q-81 35 -142.5 48t-123.5 13q-128 0 -196 -67.5t-68 -192.5q0 -86 21 -146.5t63 -117.5q177 79 356 135l72 -231
q-314 -79 -450 -177t-136 -227q0 -85 58.5 -133.5t171.5 -48.5q137 0 301 43l34 -223q-199 -70 -397 -70z" />
    <glyph glyph-name="uni063A" unicode="&#x63a;" horiz-adv-x="1214" arabic-form="isolated" 
d="M600 -668q-210 0 -338.5 114.5t-128.5 301.5q0 229 260 408q-72 72 -126 182t-54 203q0 230 151.5 361.5t413.5 131.5q90 0 188.5 -20t155.5 -47l-86 -240q-81 35 -142.5 48t-123.5 13q-128 0 -196 -67.5t-68 -192.5q0 -86 21 -146.5t63 -117.5q177 79 356 135l72 -231
q-314 -79 -450 -177t-136 -227q0 -85 58.5 -133.5t171.5 -48.5q137 0 301 43l34 -223q-199 -70 -397 -70zM674 1190q-64 0 -101 39.5t-37 107.5q0 69 36.5 108.5t101.5 39.5q62 0 98.5 -39t36.5 -109q0 -68 -37.5 -107.5t-97.5 -39.5z" />
    <glyph glyph-name="uni0641" unicode="&#x641;" horiz-adv-x="2202" arabic-form="isolated" 
d="M541 0q-189 0 -298.5 110t-109.5 302q0 77 18 164.5t48 148.5h270q-31 -133 -31 -268q0 -95 53 -153t140 -58h532q-98 119 -98 270q0 229 158 363.5t440 134.5h365v-1014h-1487zM1722 246v522h-53q-140 0 -215.5 -69t-75.5 -199q0 -122 74 -188t213 -66h57zM1620 1190
q-64 0 -101 39.5t-37 107.5q0 69 36.5 108.5t101.5 39.5q62 0 98.5 -39t36.5 -109q0 -68 -37.5 -107.5t-97.5 -39.5z" />
    <glyph glyph-name="uni0642" unicode="&#x642;" horiz-adv-x="1970" arabic-form="isolated" 
d="M676 -492q-154 0 -278.5 74t-194.5 206.5t-70 293.5q0 116 28 236.5t77 216.5h270q-32 -110 -51 -230.5t-19 -224.5q0 -154 84.5 -240t245.5 -86h346q198 0 287.5 56.5t89.5 179.5v10h-145h-12q-147 0 -260.5 62t-176.5 177t-63 269t69.5 268t204.5 176t326 62h362v-961
q0 -276 -139.5 -410.5t-439.5 -134.5h-541zM1491 246v522h-53q-291 0 -291 -272q0 -125 76 -187.5t211 -62.5h57zM1269 1190q-63 0 -100 39.5t-37 107.5q0 69 36.5 108.5t100.5 39.5q63 0 99 -39t36 -109t-37 -108.5t-98 -38.5zM1617 1190q-63 0 -100 39.5t-37 107.5
q0 69 36.5 108.5t100.5 39.5t100 -39.5t36 -108.5q0 -68 -37.5 -107.5t-98.5 -39.5z" />
    <glyph glyph-name="uni0643" unicode="&#x643;" horiz-adv-x="1806" arabic-form="isolated" 
d="M662 739l116 19q-40 20 -66 55.5t-26 83.5q0 86 60.5 136t164.5 50q98 0 168 -36l-41 -105q-54 27 -110 27q-45 0 -72 -27.5t-27 -71.5q0 -61 62 -92l36 6q103 16 167 21v-119q-133 -8 -432 -51v104zM541 0q-189 0 -298.5 110t-109.5 302q0 77 18 164.5t48 148.5h270
q-31 -133 -31 -268q0 -95 53 -153t140 -58h665v1310h306v-1556h-1061z" />
    <glyph glyph-name="uni0644" unicode="&#x644;" horiz-adv-x="1589" arabic-form="isolated" 
d="M690 -492q-171 0 -297.5 72t-193 202.5t-66.5 299.5q0 116 28 236.5t77 216.5h270q-32 -110 -51 -230.5t-19 -224.5q0 -149 75 -237.5t198 -88.5h61q158 0 232.5 85.5t74.5 240.5v1476h305v-1484q0 -564 -604 -564h-90z" />
    <glyph glyph-name="uni0645" unicode="&#x645;" horiz-adv-x="1464" arabic-form="isolated" 
d="M133 -57q0 134 70 213t198 88q-55 130 -55 284q0 90 31 195t74 174q92 54 204 85.5t201 31.5q140 0 254 -59.5t178 -170t64 -254.5q0 -156 -72.5 -276t-201.5 -187t-285 -67h-189q-92 0 -129 -36.5t-37 -121.5v-497h-305v598zM629 485q0 -104 47 -239h78q123 0 206.5 83
t83.5 201q0 112 -53.5 175t-140.5 63q-92 0 -191 -57q-30 -108 -30 -226z" />
    <glyph glyph-name="uni0646" unicode="&#x646;" horiz-adv-x="1559" arabic-form="isolated" 
d="M690 -492q-171 0 -297.5 72t-193 202.5t-66.5 299.5q0 116 28 236.5t77 216.5h270q-32 -110 -51 -230.5t-19 -224.5q0 -149 75 -237.5t198 -88.5h61q158 0 232.5 85.5t74.5 240.5v934h305v-942q0 -564 -604 -564h-90zM758 1015q-64 0 -101 39.5t-37 107.5
q0 69 36.5 108.5t101.5 39.5q62 0 98.5 -39t36.5 -109q0 -68 -37.5 -107.5t-97.5 -39.5z" />
    <glyph glyph-name="uni0647" unicode="&#x647;" horiz-adv-x="1292" arabic-form="isolated" 
d="M643 -20q-250 0 -380 119t-130 352q0 159 65.5 294.5t182.5 212t268 76.5q139 0 253 -74t185.5 -212.5t71.5 -296.5q0 -243 -130 -357t-386 -114zM641 229q108 0 159.5 57.5t51.5 174.5q0 132 -62.5 229.5t-150.5 97.5t-149.5 -95t-61.5 -232q0 -118 52.5 -175t160.5 -57
z" />
    <glyph glyph-name="uni0648" unicode="&#x648;" horiz-adv-x="1284" arabic-form="isolated" 
d="M569 -492q-139 0 -240.5 21.5t-195.5 77.5l119 223q83 -43 157 -60.5t154 -17.5q116 0 179 63.5t63 174.5v10h-203q-219 0 -337 124t-118 353q0 162 81 284.5t229 187.5t342 65h311v-1020q0 -233 -141.5 -359.5t-399.5 -126.5zM805 246v522h-66q-131 0 -204.5 -74
t-73.5 -209q0 -123 50 -181t153 -58h141z" />
    <glyph glyph-name="uni0649" unicode="&#x649;" horiz-adv-x="1808" arabic-form="isolated" 
d="M545 -492q-117 0 -212 59.5t-147.5 166.5t-52.5 241q0 200 66 396h272q-26 -85 -34.5 -161t-8.5 -190q0 -70 34.5 -132.5t91.5 -98t118 -35.5h354q159 0 232 29t73 94q0 42 -27.5 75.5t-92.5 73.5q-86 54 -197.5 129.5t-154 133.5t-42.5 127q0 120 108.5 273.5t260.5 248
t291 94.5q48 0 97.5 -18.5t141.5 -77.5l-110 -223q-41 23 -80 39t-82 16q-54 0 -142.5 -57t-146 -125t-57.5 -119q0 -32 46.5 -75.5t135.5 -99.5q83 -52 175 -128t136.5 -145.5t44.5 -135.5q0 -188 -156.5 -281.5t-451.5 -93.5h-483z" />
    <glyph glyph-name="uni064A" unicode="&#x64a;" horiz-adv-x="1808" arabic-form="isolated" 
d="M545 -492q-117 0 -212 59.5t-147.5 166.5t-52.5 241q0 200 66 396h272q-26 -85 -34.5 -161t-8.5 -190q0 -70 34.5 -132.5t91.5 -98t118 -35.5h354q159 0 232 29t73 94q0 42 -27.5 75.5t-92.5 73.5q-86 54 -197.5 129.5t-154 133.5t-42.5 127q0 120 108.5 273.5t260.5 248
t291 94.5q48 0 97.5 -18.5t141.5 -77.5l-110 -223q-41 23 -80 39t-82 16q-54 0 -142.5 -57t-146 -125t-57.5 -119q0 -32 46.5 -75.5t135.5 -99.5q83 -52 175 -128t136.5 -145.5t44.5 -135.5q0 -188 -156.5 -281.5t-451.5 -93.5h-483zM704 -998q-63 0 -100 39.5t-37 107.5
q0 69 36.5 108.5t100.5 39.5q63 0 99 -39t36 -109t-37 -108.5t-98 -38.5zM1052 -998q-63 0 -100 39.5t-37 107.5q0 69 36.5 108.5t100.5 39.5t100 -39.5t36 -108.5q0 -68 -37.5 -107.5t-98.5 -39.5z" />
    <glyph glyph-name="uni066E.init" unicode="&#x66e;" horiz-adv-x="725" 
d="M-10 0q-10 0 -10 10v228q0 8 10 8h256v768h305v-1014h-561z" />
    <glyph glyph-name="uni066E.medi" unicode="&#x66e;" horiz-adv-x="807" 
d="M817 246q10 0 10 -8v-228q0 -10 -10 -10h-827q-10 0 -10 10v228q0 8 10 8h256v768h305v-768h266z" />
    <glyph glyph-name="uni066E.fina" unicode="&#x66e;" horiz-adv-x="1858" 
d="M541 0q-189 0 -298.5 110t-109.5 302q0 77 18 164.5t48 148.5h270q-31 -133 -31 -268q0 -95 53 -153t140 -58h665v768h306v-768h266q10 0 10 -8v-228q0 -10 -10 -10h-1327z" />
    <glyph glyph-name="uni066F.init" unicode="&#x66f;" horiz-adv-x="1321" 
d="M842 246v522h-54q-138 0 -214 -68.5t-76 -199.5q0 -122 73.5 -188t212.5 -66h58zM283 246q-99 117 -99 270q0 229 158 363.5t440 134.5h365v-1014h-1157q-10 0 -10 10v228q0 8 10 8h293z" />
    <glyph glyph-name="uni066F.medi" unicode="&#x66f;" horiz-adv-x="1393" 
d="M1403 246q10 0 10 -8v-228q0 -10 -10 -10h-1413q-10 0 -10 10v228q0 8 10 8h293q-99 117 -99 270q0 229 158 363.5t440 134.5h365v-768h256zM842 246v522h-54q-138 0 -214 -68.5t-76 -199.5q0 -122 73.5 -188t212.5 -66h58z" />
    <glyph glyph-name="uni066F.fina" unicode="&#x66f;" horiz-adv-x="2042" 
d="M2052 246q10 0 10 -8v-228q0 -10 -10 -10h-258q-13 -252 -153 -372t-424 -120h-541q-154 0 -278.5 74t-194.5 206.5t-70 293.5q0 116 28 236.5t77 216.5h270q-32 -110 -51 -230.5t-19 -224.5q0 -154 84.5 -240t245.5 -86h346q198 0 287.5 56.5t89.5 179.5v10h-145h-12
q-147 0 -260.5 62t-176.5 177t-63 269t69.5 268t204.5 176t326 62h362v-768h256zM1491 246v522h-53q-291 0 -291 -272q0 -125 76 -187.5t211 -62.5h57z" />
    <glyph glyph-name="uni0671" unicode="&#x671;" horiz-adv-x="715" arabic-form="isolated" 
d="M205 1434h305v-1434h-305v1434zM90 1692h94q72 209 229 209q83 0 129.5 -55.5t46.5 -153.5v-115h-499v115zM485 1692q0 51 -19.5 71.5t-56.5 20.5q-38 0 -68 -26t-44 -66h188z" />
    <glyph glyph-name="uni0672.fina" unicode="&#x672;" horiz-adv-x="756" 
d="M766 246q10 0 10 -8v-228q0 -10 -10 -10h-561v1434h305v-1188h256zM596 1622q-176 -41 -299 -41q-31 0 -110 21l-29 4q-44 0 -98 -47l-55 57q33 46 71.5 76t69.5 30t73 -16q43 -17 62 -18q-40 20 -66 55.5t-26 83.5q0 88 61 137t164 49q101 0 168 -37l-41 -104
q-52 26 -111 26q-44 0 -71 -26t-27 -72q0 -32 18 -56t44 -36q32 3 105.5 15t96.5 18v-119z" />
    <glyph glyph-name="uni0673.fina" unicode="&#x673;" horiz-adv-x="756" 
d="M766 246q10 0 10 -8v-228q0 -10 -10 -10h-561v1556h305v-1310h256zM656 -489q-176 -41 -299 -41q-36 0 -111 20l-29 4q-44 0 -98 -47l-55 57q86 107 141 107q33 0 73 -16q41 -18 62 -19q-40 20 -66 55.5t-26 83.5q0 86 60 136.5t165 50.5q96 0 168 -37l-41 -105
q-49 27 -110 27q-45 0 -72 -27.5t-27 -70.5q0 -32 18 -56t44 -36q25 2 103 13.5t100 18.5v-118z" />
    <glyph glyph-name="uni0675.fina" unicode="&#x675;" horiz-adv-x="756" 
d="M766 246q10 0 10 -8v-228q0 -10 -10 -10h-561v1434h305v-1188h256zM651 1148l117 19q-40 20 -66 55.5t-26 83.5q0 88 61 137t164 49q101 0 168 -37l-41 -104q-52 26 -111 26q-44 0 -71 -26t-27 -72q0 -32 18 -56t44 -36l36 6q104 16 166 21v-119q-73 -5 -241.5 -25
t-190.5 -26v104z" />
    <glyph glyph-name="uni0676.fina" unicode="&#x676;" horiz-adv-x="1356" 
d="M1366 246q10 0 10 -8v-228q0 -10 -10 -10h-256q0 -234 -141.5 -363t-399.5 -129q-139 0 -240.5 21.5t-195.5 77.5l119 223q83 -43 157 -60.5t154 -17.5q116 0 179 63.5t63 174.5v10h-203q-219 0 -337 124t-118 353q0 162 81 284.5t229 187.5t342 65h311v-768h256z
M805 246v522h-66q-131 0 -204.5 -74t-73.5 -209q0 -123 50 -181t153 -58h141zM782 1308l117 19q-40 20 -66 55.5t-26 83.5q0 88 61 137t164 49q101 0 168 -37l-41 -104q-52 26 -111 26q-44 0 -71 -26t-27 -72q0 -32 18 -56t44 -36l36 6q104 16 166 21v-119
q-73 -5 -241.5 -25t-190.5 -26v104z" />
    <glyph glyph-name="uni0677.fina" unicode="&#x677;" horiz-adv-x="1356" 
d="M1366 246q10 0 10 -8v-228q0 -10 -10 -10h-256q0 -234 -141.5 -363t-399.5 -129q-139 0 -240.5 21.5t-195.5 77.5l119 223q83 -43 157 -60.5t154 -17.5q116 0 179 63.5t63 174.5v10h-203q-219 0 -337 124t-118 353q0 162 81 284.5t229 187.5t342 65h311v-768h256z
M805 246v522h-66q-131 0 -204.5 -74t-73.5 -209q0 -123 50 -181t153 -58h141zM782 1308l117 19q-40 20 -66 55.5t-26 83.5q0 88 61 137t164 49q101 0 168 -37l-41 -104q-52 26 -111 26q-44 0 -71 -26t-27 -72q0 -32 18 -56t44 -36l36 6q104 16 166 21v-119
q-73 -5 -241.5 -25t-190.5 -26v104zM207 1119q-117 0 -219 74l70 101q86 -56 145 -56q50 0 84 10q-57 87 -57 166q0 80 53.5 128t136.5 48t132.5 -47t49.5 -120q0 -75 -55.5 -147t-145 -114.5t-194.5 -42.5zM395 1289q44 26 63 60t19 65q0 26 -17.5 43t-43.5 17t-46 -17.5
t-20 -52.5q0 -49 45 -115z" />
    <glyph glyph-name="uni0678.fina" unicode="&#x678;" horiz-adv-x="2058" 
d="M2058 0q-110 0 -187.5 31t-160.5 119q-22 23 -104 138q-97 135 -152 180.5t-104 45.5q-33 0 -83 -34t-84 -79t-34 -77q0 -42 35.5 -73t112.5 -57q131 -44 193.5 -84t94 -97t31.5 -134q0 -181 -146.5 -276t-441.5 -95h-483q-117 0 -212 59.5t-147.5 166.5t-52.5 241
q0 200 66 396h272q-26 -85 -34.5 -161t-8.5 -190q0 -70 34.5 -132.5t91.5 -98t118 -35.5h354q166 0 226.5 25t60.5 84q0 35 -33.5 59.5t-107.5 44.5q-172 44 -239 117t-67 197q0 107 77.5 224.5t200.5 198t236 80.5q66 0 122 -25.5t108.5 -77t171.5 -221.5
q94 -135 151.5 -174.5t124.5 -39.5h10q11 0 11 -8v-228q0 -10 -11 -10h-10zM1044 1021l117 19q-40 20 -66 55.5t-26 83.5q0 88 61 137t164 49q101 0 168 -37l-41 -104q-52 26 -111 26q-44 0 -71 -26t-27 -72q0 -32 18 -56t44 -36l36 6q104 16 166 21v-119q-73 -5 -241.5 -25
t-190.5 -26v104z" />
    <glyph glyph-name="uni0679" unicode="&#x679;" horiz-adv-x="1776" arabic-form="isolated" 
d="M541 0q-189 0 -298.5 110t-109.5 302q0 77 18 164.5t48 148.5h270q-31 -133 -31 -268q0 -95 53 -153t140 -58h665v768h306v-1014h-1061zM616 1146h31v372h123v-239q56 92 162 92q91 0 130.5 -47.5t39.5 -151.5v-155h-486v129zM979 1146v10q0 54 -16 80t-54 26
q-52 0 -83.5 -27t-53.5 -67l-2 -22h209z" />
    <glyph glyph-name="uni067A.init" unicode="&#x67a;" horiz-adv-x="827" arabic-form="initial" 
d="M-10 0q-10 0 -10 10v228q0 8 10 8h358v768h305v-1014h-663zM516 1190q-61 0 -99 38t-38 109q0 72 36.5 110t100.5 38q63 0 99 -39t36 -109t-37 -108.5t-98 -38.5zM516 1571q-61 0 -99 38t-38 109q0 72 36.5 110t100.5 38q63 0 99 -39t36 -109t-37 -108.5t-98 -38.5z" />
    <glyph glyph-name="uni067A.medi" unicode="&#x67a;" horiz-adv-x="909" arabic-form="medial" 
d="M-10 0q-10 0 -10 10v228q0 8 10 8h317v768h305v-768h308q10 0 10 -8v-228q0 -10 -10 -10h-930zM467 1190q-61 0 -99 38t-38 109q0 72 36.5 110t100.5 38q63 0 99 -39t36 -109t-37 -108.5t-98 -38.5zM467 1571q-61 0 -99 38t-38 109q0 72 36.5 110t100.5 38q63 0 99 -39
t36 -109t-37 -108.5t-98 -38.5z" />
    <glyph glyph-name="uni067A.fina" unicode="&#x67a;" horiz-adv-x="1858" arabic-form="final" 
d="M541 0q-189 0 -298.5 110t-109.5 302q0 77 18 164.5t48 148.5h270q-31 -133 -31 -268q0 -95 53 -153t140 -58h665v768h306v-768h266q10 0 10 -8v-228q0 -10 -10 -10h-1327zM893 751q-61 0 -99 38t-38 109q0 72 36.5 110t100.5 38q63 0 99 -39t36 -109t-37 -108.5
t-98 -38.5zM893 1132q-61 0 -99 38t-38 109q0 72 36.5 110t100.5 38q63 0 99 -39t36 -109t-37 -108.5t-98 -38.5z" />
    <glyph glyph-name="uni067B.init" unicode="&#x67b;" horiz-adv-x="725" arabic-form="initial" 
d="M-10 0q-10 0 -10 10v228q0 8 10 8h256v768h305v-1014h-561zM408 -893q-61 0 -99 38t-38 110q0 71 37 109t100 38t99 -39t36 -108q0 -71 -36.5 -109.5t-98.5 -38.5zM408 -512q-61 0 -99 38t-38 109q0 72 36.5 110t100.5 38q63 0 99 -39t36 -109t-37 -108.5t-98 -38.5z" />
    <glyph glyph-name="uni067B.medi" unicode="&#x67b;" horiz-adv-x="807" arabic-form="medial" 
d="M817 246q10 0 10 -8v-228q0 -10 -10 -10h-827q-10 0 -10 10v228q0 8 10 8h256v768h305v-768h266zM393 -893q-61 0 -99 38t-38 110q0 71 37 109t100 38t99 -39t36 -108q0 -71 -36.5 -109.5t-98.5 -38.5zM393 -512q-61 0 -99 38t-38 109q0 72 36.5 110t100.5 38
q63 0 99 -39t36 -109t-37 -108.5t-98 -38.5z" />
    <glyph glyph-name="uni067B.fina" unicode="&#x67b;" horiz-adv-x="1858" arabic-form="final" 
d="M541 0q-189 0 -298.5 110t-109.5 302q0 77 18 164.5t48 148.5h270q-31 -133 -31 -268q0 -95 53 -153t140 -58h665v768h306v-768h266q10 0 10 -8v-228q0 -10 -10 -10h-1327zM922 -893q-61 0 -99 38t-38 110q0 71 37 109t100 38t99 -39t36 -108q0 -71 -36.5 -109.5
t-98.5 -38.5zM922 -512q-61 0 -99 38t-38 109q0 72 36.5 110t100.5 38q63 0 99 -39t36 -109t-37 -108.5t-98 -38.5z" />
    <glyph glyph-name="uni067C.init" unicode="&#x67c;" horiz-adv-x="827" 
d="M-10 0q-10 0 -10 10v228q0 8 10 8h358v768h305v-1014h-663zM336 1190q-63 0 -100 39.5t-37 107.5q0 69 36.5 108.5t100.5 39.5q63 0 99 -39t36 -109t-37 -108.5t-98 -38.5zM684 1190q-63 0 -100 39.5t-37 107.5q0 69 36.5 108.5t100.5 39.5t100 -39.5t36 -108.5
q0 -68 -37.5 -107.5t-98.5 -39.5zM324 -304q-103 0 -163 58.5t-60 156.5t60 156.5t163 58.5q101 0 165 -58.5t64 -154.5q0 -97 -62.5 -157t-166.5 -60zM324 -179q40 0 65 24t25 66t-25 66t-65 24t-65 -24t-25 -66t22.5 -66t67.5 -24z" />
    <glyph glyph-name="uni067C.medi" unicode="&#x67c;" horiz-adv-x="909" 
d="M-10 0q-10 0 -10 10v228q0 8 10 8h317v768h305v-768h308q10 0 10 -8v-228q0 -10 -10 -10h-930zM280 1190q-63 0 -100 39.5t-37 107.5q0 69 36.5 108.5t100.5 39.5q63 0 99 -39t36 -109t-37 -108.5t-98 -38.5zM628 1190q-63 0 -100 39.5t-37 107.5q0 69 36.5 108.5
t100.5 39.5t100 -39.5t36 -108.5q0 -68 -37.5 -107.5t-98.5 -39.5zM457 -304q-103 0 -163 58.5t-60 156.5t60 156.5t163 58.5q101 0 165 -58.5t64 -154.5q0 -97 -62.5 -157t-166.5 -60zM457 -179q40 0 65 24t25 66t-25 66t-65 24t-65 -24t-25 -66t22.5 -66t67.5 -24z" />
    <glyph glyph-name="uni067C.fina" unicode="&#x67c;" horiz-adv-x="1858" 
d="M541 0q-189 0 -298.5 110t-109.5 302q0 77 18 164.5t48 148.5h270q-31 -133 -31 -268q0 -95 53 -153t140 -58h665v768h306v-768h266q10 0 10 -8v-228q0 -10 -10 -10h-1327zM889 -304q-103 0 -163 58.5t-60 156.5t60 156.5t163 58.5q101 0 165 -58.5t64 -154.5
q0 -97 -62.5 -157t-166.5 -60zM889 -179q40 0 65 24t25 66t-25 66t-65 24t-65 -24t-25 -66t22.5 -66t67.5 -24zM673 996q-63 0 -100 39.5t-37 107.5q0 69 36.5 108.5t100.5 39.5q63 0 99 -39t36 -109t-37 -108.5t-98 -38.5zM1021 996q-63 0 -100 39.5t-37 107.5
q0 69 36.5 108.5t100.5 39.5t100 -39.5t36 -108.5q0 -68 -37.5 -107.5t-98.5 -39.5z" />
    <glyph glyph-name="uni067D.init" unicode="&#x67d;" horiz-adv-x="827" 
d="M-10 0q-10 0 -10 10v228q0 8 10 8h358v768h305v-1014h-663zM499 1438q50 0 83.5 -31t33.5 -94q0 -65 -33.5 -95t-83.5 -30q-53 0 -84.5 34t-31.5 91q0 56 31.5 90.5t84.5 34.5zM673 1767q64 0 101 -39t37 -108q0 -68 -36 -107.5t-102 -39.5q-62 0 -98.5 39t-36.5 108
q0 68 37 107.5t98 39.5zM325 1767q64 0 101 -39t37 -108q0 -68 -36 -107.5t-102 -39.5q-62 0 -98.5 39t-36.5 108q0 68 37 107.5t98 39.5z" />
    <glyph glyph-name="uni067D.medi" unicode="&#x67d;" horiz-adv-x="909" 
d="M-10 0q-10 0 -10 10v228q0 8 10 8h317v768h305v-768h308q10 0 10 -8v-228q0 -10 -10 -10h-930zM450 1438q50 0 83.5 -31t33.5 -94q0 -65 -33.5 -95t-83.5 -30q-53 0 -84.5 34t-31.5 91q0 56 31.5 90.5t84.5 34.5zM624 1767q64 0 101 -39t37 -108q0 -68 -36 -107.5
t-102 -39.5q-62 0 -98.5 39t-36.5 108q0 68 37 107.5t98 39.5zM276 1767q64 0 101 -39t37 -108q0 -68 -36 -107.5t-102 -39.5q-62 0 -98.5 39t-36.5 108q0 68 37 107.5t98 39.5z" />
    <glyph glyph-name="uni067D.fina" unicode="&#x67d;" horiz-adv-x="1858" 
d="M541 0q-189 0 -298.5 110t-109.5 302q0 77 18 164.5t48 148.5h270q-31 -133 -31 -268q0 -95 53 -153t140 -58h665v768h306v-768h266q10 0 10 -8v-228q0 -10 -10 -10h-1327zM864 990q50 0 83.5 -31t33.5 -94q0 -65 -33.5 -95t-83.5 -30q-53 0 -84.5 34t-31.5 91
q0 56 31.5 90.5t84.5 34.5zM1038 1319q64 0 101 -39t37 -108q0 -68 -36 -107.5t-102 -39.5q-62 0 -98.5 39t-36.5 108q0 68 37 107.5t98 39.5zM690 1319q64 0 101 -39t37 -108q0 -68 -36 -107.5t-102 -39.5q-62 0 -98.5 39t-36.5 108q0 68 37 107.5t98 39.5z" />
    <glyph glyph-name="uni067E" unicode="&#x67e;" horiz-adv-x="1776" arabic-form="isolated" 
d="M541 0q-189 0 -298.5 110t-109.5 302q0 77 18 164.5t48 148.5h270q-31 -133 -31 -268q0 -95 53 -153t140 -58h665v768h306v-1014h-1061zM948 -674q-49 0 -82.5 31t-33.5 94q0 65 33.5 95t82.5 30q54 0 85.5 -34.5t31.5 -90.5t-31.5 -90.5t-85.5 -34.5zM774 -416
q-63 0 -100 40t-37 108t36 107.5t101 39.5q64 0 100 -39.5t36 -107.5q0 -69 -37.5 -108.5t-98.5 -39.5zM1123 -416q-64 0 -101 39t-37 109q0 68 36 107.5t102 39.5q62 0 98.5 -39t36.5 -108t-37.5 -108.5t-97.5 -39.5z" />
    <glyph glyph-name="uni067F.init" unicode="&#x67f;" horiz-adv-x="827" arabic-form="initial" 
d="M-10 0q-10 0 -10 10v228q0 8 10 8h358v768h305v-1014h-663zM338 1192q-51 0 -87 32.5t-36 100.5q0 69 36 101t87 32q57 0 90 -35.5t33 -97.5q0 -60 -33 -96.5t-90 -36.5zM651 1192q-51 0 -87 32.5t-36 100.5q0 69 36 101t87 32t87 -32t36 -101q0 -68 -36 -100.5
t-87 -32.5zM338 1522q-51 0 -87 32.5t-36 100.5q0 69 36 101t87 32q57 0 90 -35.5t33 -97.5q0 -60 -33 -96.5t-90 -36.5zM651 1522q-51 0 -87 32.5t-36 100.5q0 69 36 101t87 32t87 -32t36 -101q0 -68 -36 -100.5t-87 -32.5z" />
    <glyph glyph-name="uni067F.medi" unicode="&#x67f;" horiz-adv-x="909" arabic-form="medial" 
d="M-10 0q-10 0 -10 10v228q0 8 10 8h317v768h305v-768h308q10 0 10 -8v-228q0 -10 -10 -10h-930zM287 1192q-51 0 -87 32.5t-36 100.5q0 69 36 101t87 32q57 0 90 -35.5t33 -97.5q0 -60 -33 -96.5t-90 -36.5zM600 1192q-51 0 -87 32.5t-36 100.5q0 69 36 101t87 32t87 -32
t36 -101q0 -68 -36 -100.5t-87 -32.5zM287 1522q-51 0 -87 32.5t-36 100.5q0 69 36 101t87 32q57 0 90 -35.5t33 -97.5q0 -60 -33 -96.5t-90 -36.5zM600 1522q-51 0 -87 32.5t-36 100.5q0 69 36 101t87 32t87 -32t36 -101q0 -68 -36 -100.5t-87 -32.5z" />
    <glyph glyph-name="uni067F.fina" unicode="&#x67f;" horiz-adv-x="1858" arabic-form="final" 
d="M541 0q-189 0 -298.5 110t-109.5 302q0 77 18 164.5t48 148.5h270q-31 -133 -31 -268q0 -95 53 -153t140 -58h665v768h306v-768h266q10 0 10 -8v-228q0 -10 -10 -10h-1327zM688 765q-51 0 -87 32.5t-36 100.5q0 69 36 101t87 32q57 0 90 -35.5t33 -97.5q0 -60 -33 -96.5
t-90 -36.5zM1001 765q-51 0 -87 32.5t-36 100.5q0 69 36 101t87 32t87 -32t36 -101q0 -68 -36 -100.5t-87 -32.5zM688 1095q-51 0 -87 32.5t-36 100.5q0 69 36 101t87 32q57 0 90 -35.5t33 -97.5q0 -60 -33 -96.5t-90 -36.5zM1001 1095q-51 0 -87 32.5t-36 100.5
q0 69 36 101t87 32t87 -32t36 -101q0 -68 -36 -100.5t-87 -32.5z" />
    <glyph glyph-name="uni0680.init" unicode="&#x680;" horiz-adv-x="827" arabic-form="initial" 
d="M-10 0q-10 0 -10 10v228q0 8 10 8h358v768h305v-1014h-663zM187 -813q-51 0 -87 32.5t-36 100.5q0 69 36 101t87 32q57 0 90 -35.5t33 -97.5q0 -60 -33 -96.5t-90 -36.5zM500 -813q-51 0 -87 32.5t-36 100.5q0 69 36 101t87 32t87 -32t36 -101q0 -68 -36 -100.5
t-87 -32.5zM187 -483q-51 0 -87 32.5t-36 100.5q0 69 36 101t87 32q57 0 90 -35.5t33 -97.5q0 -60 -33 -96.5t-90 -36.5zM500 -483q-51 0 -87 32.5t-36 100.5q0 69 36 101t87 32t87 -32t36 -101q0 -68 -36 -100.5t-87 -32.5z" />
    <glyph glyph-name="uni0680.medi" unicode="&#x680;" horiz-adv-x="909" arabic-form="medial" 
d="M-10 0q-10 0 -10 10v228q0 8 10 8h317v768h305v-768h308q10 0 10 -8v-228q0 -10 -10 -10h-930zM299 -813q-51 0 -87 32.5t-36 100.5q0 69 36 101t87 32q57 0 90 -35.5t33 -97.5q0 -60 -33 -96.5t-90 -36.5zM612 -813q-51 0 -87 32.5t-36 100.5q0 69 36 101t87 32t87 -32
t36 -101q0 -68 -36 -100.5t-87 -32.5zM299 -483q-51 0 -87 32.5t-36 100.5q0 69 36 101t87 32q57 0 90 -35.5t33 -97.5q0 -60 -33 -96.5t-90 -36.5zM612 -483q-51 0 -87 32.5t-36 100.5q0 69 36 101t87 32t87 -32t36 -101q0 -68 -36 -100.5t-87 -32.5z" />
    <glyph glyph-name="uni0680.fina" unicode="&#x680;" horiz-adv-x="1858" arabic-form="final" 
d="M541 0q-189 0 -298.5 110t-109.5 302q0 77 18 164.5t48 148.5h270q-31 -133 -31 -268q0 -95 53 -153t140 -58h665v768h306v-768h266q10 0 10 -8v-228q0 -10 -10 -10h-1327zM752 -813q-51 0 -87 32.5t-36 100.5q0 69 36 101t87 32q57 0 90 -35.5t33 -97.5q0 -60 -33 -96.5
t-90 -36.5zM1065 -813q-51 0 -87 32.5t-36 100.5q0 69 36 101t87 32t87 -32t36 -101q0 -68 -36 -100.5t-87 -32.5zM752 -483q-51 0 -87 32.5t-36 100.5q0 69 36 101t87 32q57 0 90 -35.5t33 -97.5q0 -60 -33 -96.5t-90 -36.5zM1065 -483q-51 0 -87 32.5t-36 100.5
q0 69 36 101t87 32t87 -32t36 -101q0 -68 -36 -100.5t-87 -32.5z" />
    <glyph glyph-name="uni0681.init" unicode="&#x681;" horiz-adv-x="1255" 
d="M-10 0q-10 0 -10 10v228q0 8 10 8h825v2q-80 72 -123 291q-28 138 -82.5 193.5t-163.5 55.5q-72 0 -135 -18t-137 -59l-92 225q183 98 428 98q205 0 319 -92t150 -303q53 -305 143 -393v-246h-1132zM248 1316l117 19q-40 20 -66 55.5t-26 83.5q0 88 61 137t164 49
q101 0 168 -37l-41 -104q-52 26 -111 26q-44 0 -71 -26t-27 -72q0 -32 18 -56t44 -36l36 6q104 16 166 21v-119q-73 -5 -241.5 -25t-190.5 -26v104z" />
    <glyph glyph-name="uni0681.medi" unicode="&#x681;" horiz-adv-x="1245" 
d="M-10 0q-10 0 -10 10v228q0 8 10 8h827q-81 76 -125 293q-28 138 -82.5 193.5t-163.5 55.5q-72 0 -135 -18t-137 -59l-92 225q183 98 428 98q205 0 319 -92t150 -303q53 -305 143 -393h133q11 0 11 -8v-228q0 -10 -11 -10h-1265zM248 1316l117 19q-40 20 -66 55.5
t-26 83.5q0 88 61 137t164 49q101 0 168 -37l-41 -104q-52 26 -111 26q-44 0 -71 -26t-27 -72q0 -32 18 -56t44 -36l36 6q104 16 166 21v-119q-73 -5 -241.5 -25t-190.5 -26v104z" />
    <glyph glyph-name="uni0681.fina" unicode="&#x681;" horiz-adv-x="1321" 
d="M1319 0q-142 0 -228.5 42t-146.5 130q-247 -63 -347 -113.5t-153 -119t-53 -164.5q0 -86 64.5 -139.5t165.5 -53.5q137 0 301 43l34 -223q-199 -70 -397 -70q-210 0 -338.5 116.5t-128.5 309.5q0 109 44 200.5t128 165t216.5 135.5t359.5 124q-29 81 -52 166
q-33 122 -98.5 180.5t-175.5 58.5q-134 0 -305 -94l-109 226q99 52 228 83t250 31q407 0 475 -395q33 -184 104 -288.5t162 -104.5h12q10 0 10 -8v-228q0 -10 -10 -10h-12zM248 1316l117 19q-40 20 -66 55.5t-26 83.5q0 88 61 137t164 49q101 0 168 -37l-41 -104
q-52 26 -111 26q-44 0 -71 -26t-27 -72q0 -32 18 -56t44 -36l36 6q104 16 166 21v-119q-73 -5 -241.5 -25t-190.5 -26v104z" />
    <glyph glyph-name="uni0682.init" unicode="&#x682;" horiz-adv-x="1255" 
d="M-10 0q-10 0 -10 10v228q0 8 10 8h825v2q-80 72 -123 291q-28 138 -82.5 193.5t-163.5 55.5q-72 0 -135 -18t-137 -59l-92 225q183 98 428 98q205 0 319 -92t150 -303q53 -305 143 -393v-246h-1132zM483 1190q-61 0 -99 38t-38 109q0 72 36.5 110t100.5 38q63 0 99 -39
t36 -109t-37 -108.5t-98 -38.5zM483 1571q-61 0 -99 38t-38 109q0 72 36.5 110t100.5 38q63 0 99 -39t36 -109t-37 -108.5t-98 -38.5z" />
    <glyph glyph-name="uni0682.medi" unicode="&#x682;" horiz-adv-x="1245" 
d="M-10 0q-10 0 -10 10v228q0 8 10 8h827q-81 76 -125 293q-28 138 -82.5 193.5t-163.5 55.5q-72 0 -135 -18t-137 -59l-92 225q183 98 428 98q205 0 319 -92t150 -303q53 -305 143 -393h133q11 0 11 -8v-228q0 -10 -11 -10h-1265zM483 1190q-61 0 -99 38t-38 109
q0 72 36.5 110t100.5 38q63 0 99 -39t36 -109t-37 -108.5t-98 -38.5zM483 1571q-61 0 -99 38t-38 109q0 72 36.5 110t100.5 38q63 0 99 -39t36 -109t-37 -108.5t-98 -38.5z" />
    <glyph glyph-name="uni0682.fina" unicode="&#x682;" horiz-adv-x="1321" 
d="M1319 0q-142 0 -228.5 42t-146.5 130q-247 -63 -347 -113.5t-153 -119t-53 -164.5q0 -86 64.5 -139.5t165.5 -53.5q137 0 301 43l34 -223q-199 -70 -397 -70q-210 0 -338.5 116.5t-128.5 309.5q0 109 44 200.5t128 165t216.5 135.5t359.5 124q-29 81 -52 166
q-33 122 -98.5 180.5t-175.5 58.5q-134 0 -305 -94l-109 226q99 52 228 83t250 31q407 0 475 -395q33 -184 104 -288.5t162 -104.5h12q10 0 10 -8v-228q0 -10 -10 -10h-12zM524 1190q-61 0 -99 38t-38 109q0 72 36.5 110t100.5 38q63 0 99 -39t36 -109t-37 -108.5t-98 -38.5
zM524 1571q-61 0 -99 38t-38 109q0 72 36.5 110t100.5 38q63 0 99 -39t36 -109t-37 -108.5t-98 -38.5z" />
    <glyph glyph-name="uni0683.init" unicode="&#x683;" horiz-adv-x="1255" arabic-form="initial" 
d="M-10 0q-10 0 -10 10v228q0 8 10 8h825v2q-80 72 -123 291q-28 138 -82.5 193.5t-163.5 55.5q-72 0 -135 -18t-137 -59l-92 225q183 98 428 98q205 0 319 -92t150 -303q53 -305 143 -393v-246h-1132zM342 -512q-63 0 -100 39.5t-37 107.5q0 69 36.5 108.5t100.5 39.5
q63 0 99 -39t36 -109t-37 -108.5t-98 -38.5zM690 -512q-63 0 -100 39.5t-37 107.5q0 69 36.5 108.5t100.5 39.5t100 -39.5t36 -108.5q0 -68 -37.5 -107.5t-98.5 -39.5z" />
    <glyph glyph-name="uni0683.medi" unicode="&#x683;" horiz-adv-x="1245" arabic-form="medial" 
d="M-10 0q-10 0 -10 10v228q0 8 10 8h827q-81 76 -125 293q-28 138 -82.5 193.5t-163.5 55.5q-72 0 -135 -18t-137 -59l-92 225q183 98 428 98q205 0 319 -92t150 -303q53 -305 143 -393h133q11 0 11 -8v-228q0 -10 -11 -10h-1265zM342 -512q-63 0 -100 39.5t-37 107.5
q0 69 36.5 108.5t100.5 39.5q63 0 99 -39t36 -109t-37 -108.5t-98 -38.5zM690 -512q-63 0 -100 39.5t-37 107.5q0 69 36.5 108.5t100.5 39.5t100 -39.5t36 -108.5q0 -68 -37.5 -107.5t-98.5 -39.5z" />
    <glyph glyph-name="uni0683.fina" unicode="&#x683;" horiz-adv-x="1321" arabic-form="final" 
d="M559 -668q-210 0 -338.5 116.5t-128.5 309.5q0 109 44 200.5t128 165t216.5 135.5t359.5 124q-29 81 -52 166q-33 122 -98.5 180.5t-175.5 58.5q-134 0 -305 -94l-109 226q99 52 228 83t250 31q407 0 475 -395q33 -184 104 -288.5t162 -104.5h12q10 0 10 -8v-228
q0 -10 -10 -10h-12q-142 0 -228.5 42t-146.5 130q-247 -63 -347 -113.5t-153 -119t-53 -164.5q0 -86 64.5 -139.5t165.5 -53.5zM673 -340q-63 0 -100 39.5t-37 107.5q0 69 36.5 108.5t100.5 39.5q63 0 99 -39t36 -109t-37 -108.5t-98 -38.5zM1021 -340q-63 0 -100 39.5
t-37 107.5q0 69 36.5 108.5t100.5 39.5t100 -39.5t36 -108.5q0 -68 -37.5 -107.5t-98.5 -39.5z" />
    <glyph glyph-name="uni0684.init" unicode="&#x684;" horiz-adv-x="1255" arabic-form="initial" 
d="M-10 0q-10 0 -10 10v228q0 8 10 8h825v2q-80 72 -123 291q-28 138 -82.5 193.5t-163.5 55.5q-72 0 -135 -18t-137 -59l-92 225q183 98 428 98q205 0 319 -92t150 -303q53 -305 143 -393v-246h-1132zM479 -893q-61 0 -99 38t-38 110q0 71 37 109t100 38t99 -39t36 -108
q0 -71 -36.5 -109.5t-98.5 -38.5zM479 -512q-61 0 -99 38t-38 109q0 72 36.5 110t100.5 38q63 0 99 -39t36 -109t-37 -108.5t-98 -38.5z" />
    <glyph glyph-name="uni0684.medi" unicode="&#x684;" horiz-adv-x="1245" arabic-form="medial" 
d="M-10 0q-10 0 -10 10v228q0 8 10 8h827q-81 76 -125 293q-28 138 -82.5 193.5t-163.5 55.5q-72 0 -135 -18t-137 -59l-92 225q183 98 428 98q205 0 319 -92t150 -303q53 -305 143 -393h133q11 0 11 -8v-228q0 -10 -11 -10h-1265zM479 -893q-61 0 -99 38t-38 110
q0 71 37 109t100 38t99 -39t36 -108q0 -71 -36.5 -109.5t-98.5 -38.5zM479 -512q-61 0 -99 38t-38 109q0 72 36.5 110t100.5 38q63 0 99 -39t36 -109t-37 -108.5t-98 -38.5z" />
    <glyph glyph-name="uni0684.fina" unicode="&#x684;" horiz-adv-x="1321" arabic-form="final" 
d="M559 -668q-210 0 -338.5 116.5t-128.5 309.5q0 109 44 200.5t128 165t216.5 135.5t359.5 124q-29 81 -52 166q-33 122 -98.5 180.5t-175.5 58.5q-134 0 -305 -94l-109 226q99 52 228 83t250 31q407 0 475 -395q33 -184 104 -288.5t162 -104.5h12q10 0 10 -8v-228
q0 -10 -10 -10h-12q-142 0 -228.5 42t-146.5 130q-247 -63 -347 -113.5t-153 -119t-53 -164.5q0 -86 64.5 -139.5t165.5 -53.5zM862 -694q-61 0 -99 38t-38 110q0 71 37 109t100 38t99 -39t36 -108q0 -71 -36.5 -109.5t-98.5 -38.5zM862 -313q-61 0 -99 38t-38 109
q0 72 36.5 110t100.5 38q63 0 99 -39t36 -109t-37 -108.5t-98 -38.5z" />
    <glyph glyph-name="uni0685.init" unicode="&#x685;" horiz-adv-x="1255" 
d="M-10 0q-10 0 -10 10v228q0 8 10 8h825v2q-80 72 -123 291q-28 138 -82.5 193.5t-163.5 55.5q-72 0 -135 -18t-137 -59l-92 225q183 98 428 98q205 0 319 -92t150 -303q53 -305 143 -393v-246h-1132zM489 1520q-49 0 -82.5 31t-33.5 94q0 65 33.5 94.5t82.5 29.5
q53 0 85 -33t32 -91q0 -56 -31.5 -90.5t-85.5 -34.5zM315 1190q-63 0 -100 39.5t-37 107.5q0 69 36.5 108.5t100.5 39.5t100 -39.5t36 -108.5q0 -68 -37.5 -107.5t-98.5 -39.5zM664 1190q-64 0 -101 39.5t-37 107.5q0 69 36.5 108.5t101.5 39.5q62 0 98.5 -39t36.5 -109
q0 -68 -37.5 -107.5t-97.5 -39.5z" />
    <glyph glyph-name="uni0685.medi" unicode="&#x685;" horiz-adv-x="1245" 
d="M-10 0q-10 0 -10 10v228q0 8 10 8h827q-81 76 -125 293q-28 138 -82.5 193.5t-163.5 55.5q-72 0 -135 -18t-137 -59l-92 225q183 98 428 98q205 0 319 -92t150 -303q53 -305 143 -393h133q11 0 11 -8v-228q0 -10 -11 -10h-1265zM489 1520q-49 0 -82.5 31t-33.5 94
q0 65 33.5 94.5t82.5 29.5q53 0 85 -33t32 -91q0 -56 -31.5 -90.5t-85.5 -34.5zM315 1190q-63 0 -100 39.5t-37 107.5q0 69 36.5 108.5t100.5 39.5t100 -39.5t36 -108.5q0 -68 -37.5 -107.5t-98.5 -39.5zM664 1190q-64 0 -101 39.5t-37 107.5q0 69 36.5 108.5t101.5 39.5
q62 0 98.5 -39t36.5 -109q0 -68 -37.5 -107.5t-97.5 -39.5z" />
    <glyph glyph-name="uni0685.fina" unicode="&#x685;" horiz-adv-x="1321" 
d="M1319 0q-142 0 -228.5 42t-146.5 130q-247 -63 -347 -113.5t-153 -119t-53 -164.5q0 -86 64.5 -139.5t165.5 -53.5q137 0 301 43l34 -223q-199 -70 -397 -70q-210 0 -338.5 116.5t-128.5 309.5q0 109 44 200.5t128 165t216.5 135.5t359.5 124q-29 81 -52 166
q-33 122 -98.5 180.5t-175.5 58.5q-134 0 -305 -94l-109 226q99 52 228 83t250 31q407 0 475 -395q33 -184 104 -288.5t162 -104.5h12q10 0 10 -8v-228q0 -10 -10 -10h-12zM489 1520q-49 0 -82.5 31t-33.5 94q0 65 33.5 94.5t82.5 29.5q53 0 85 -33t32 -91
q0 -56 -31.5 -90.5t-85.5 -34.5zM315 1190q-63 0 -100 39.5t-37 107.5q0 69 36.5 108.5t100.5 39.5t100 -39.5t36 -108.5q0 -68 -37.5 -107.5t-98.5 -39.5zM664 1190q-64 0 -101 39.5t-37 107.5q0 69 36.5 108.5t101.5 39.5q62 0 98.5 -39t36.5 -109q0 -68 -37.5 -107.5
t-97.5 -39.5z" />
    <glyph glyph-name="uni0686" unicode="&#x686;" horiz-adv-x="1399" arabic-form="isolated" 
d="M559 -668q-210 0 -338.5 116.5t-128.5 309.5q0 109 43.5 199.5t127 164t217.5 137t358 124.5q-32 97 -50 166q-31 121 -97.5 180t-176.5 59q-134 0 -305 -94l-109 226q99 52 228 83t250 31q407 0 475 -395q35 -193 81.5 -283.5t131.5 -154.5l-156 -201q-100 79 -166 172
q-247 -63 -347 -113.5t-153 -119t-53 -164.5q0 -86 64.5 -139.5t165.5 -53.5zM909 -633q-49 0 -82.5 31t-33.5 94q0 65 33.5 95t82.5 30q54 0 85.5 -34.5t31.5 -90.5t-31.5 -90.5t-85.5 -34.5zM735 -375q-63 0 -100 40t-37 108t36 107.5t101 39.5q64 0 100 -39.5t36 -107.5
q0 -69 -37.5 -108.5t-98.5 -39.5zM1084 -375q-64 0 -101 39t-37 109q0 68 36 107.5t102 39.5q62 0 98.5 -39t36.5 -108t-37.5 -108.5t-97.5 -39.5z" />
    <glyph glyph-name="uni0687.init" unicode="&#x687;" horiz-adv-x="1255" arabic-form="initial" 
d="M-10 0q-10 0 -10 10v228q0 8 10 8h825v2q-80 72 -123 291q-28 138 -82.5 193.5t-163.5 55.5q-72 0 -135 -18t-137 -59l-92 225q183 98 428 98q205 0 319 -92t150 -303q53 -305 143 -393v-246h-1132zM346 -813q-51 0 -87 32.5t-36 100.5q0 69 36 101t87 32q57 0 90 -35.5
t33 -97.5q0 -60 -33 -96.5t-90 -36.5zM659 -813q-51 0 -87 32.5t-36 100.5q0 69 36 101t87 32t87 -32t36 -101q0 -68 -36 -100.5t-87 -32.5zM346 -483q-51 0 -87 32.5t-36 100.5q0 69 36 101t87 32q57 0 90 -35.5t33 -97.5q0 -60 -33 -96.5t-90 -36.5zM659 -483
q-51 0 -87 32.5t-36 100.5q0 69 36 101t87 32t87 -32t36 -101q0 -68 -36 -100.5t-87 -32.5z" />
    <glyph glyph-name="uni0687.medi" unicode="&#x687;" horiz-adv-x="1245" arabic-form="medial" 
d="M-10 0q-10 0 -10 10v228q0 8 10 8h827q-81 76 -125 293q-28 138 -82.5 193.5t-163.5 55.5q-72 0 -135 -18t-137 -59l-92 225q183 98 428 98q205 0 319 -92t150 -303q53 -305 143 -393h133q11 0 11 -8v-228q0 -10 -11 -10h-1265zM346 -813q-51 0 -87 32.5t-36 100.5
q0 69 36 101t87 32q57 0 90 -35.5t33 -97.5q0 -60 -33 -96.5t-90 -36.5zM659 -813q-51 0 -87 32.5t-36 100.5q0 69 36 101t87 32t87 -32t36 -101q0 -68 -36 -100.5t-87 -32.5zM346 -483q-51 0 -87 32.5t-36 100.5q0 69 36 101t87 32q57 0 90 -35.5t33 -97.5q0 -60 -33 -96.5
t-90 -36.5zM659 -483q-51 0 -87 32.5t-36 100.5q0 69 36 101t87 32t87 -32t36 -101q0 -68 -36 -100.5t-87 -32.5z" />
    <glyph glyph-name="uni0687.fina" unicode="&#x687;" horiz-adv-x="1321" arabic-form="final" 
d="M559 -668q-210 0 -338.5 116.5t-128.5 309.5q0 109 44 200.5t128 165t216.5 135.5t359.5 124q-29 81 -52 166q-33 122 -98.5 180.5t-175.5 58.5q-134 0 -305 -94l-109 226q99 52 228 83t250 31q407 0 475 -395q33 -184 104 -288.5t162 -104.5h12q10 0 10 -8v-228
q0 -10 -10 -10h-12q-142 0 -228.5 42t-146.5 130q-247 -63 -347 -113.5t-153 -119t-53 -164.5q0 -86 64.5 -139.5t165.5 -53.5zM824 -672q-51 0 -87 32.5t-36 100.5q0 69 36 101t87 32q57 0 90 -35.5t33 -97.5q0 -60 -33 -96.5t-90 -36.5zM1137 -672q-51 0 -87 32.5
t-36 100.5q0 69 36 101t87 32t87 -32t36 -101q0 -68 -36 -100.5t-87 -32.5zM824 -342q-51 0 -87 32.5t-36 100.5q0 69 36 101t87 32q57 0 90 -35.5t33 -97.5q0 -60 -33 -96.5t-90 -36.5zM1137 -342q-51 0 -87 32.5t-36 100.5q0 69 36 101t87 32t87 -32t36 -101
q0 -68 -36 -100.5t-87 -32.5z" />
    <glyph glyph-name="uni0688" unicode="&#x688;" horiz-adv-x="1219" arabic-form="isolated" 
d="M92 246h684q-42 189 -102.5 305.5t-154 201t-228.5 140.5l115 287q274 -110 439.5 -339.5t239.5 -602.5v-238h-993v246zM182 1477h31v372h123v-239q56 92 162 92q91 0 130.5 -47.5t39.5 -151.5v-155h-486v129zM545 1477v10q0 54 -16 80t-54 26q-52 0 -83.5 -27t-53.5 -67
l-2 -22h209z" />
    <glyph glyph-name="uni0689.fina" unicode="&#x689;" horiz-adv-x="1341" 
d="M92 246h684q-42 189 -102.5 305.5t-154 201t-228.5 140.5l115 287q270 -108 435 -334t242 -600h269q10 0 10 -8v-228q0 -10 -10 -10h-1260v246zM516 -304q-103 0 -163 58.5t-60 156.5t60 156.5t163 58.5q101 0 165 -58.5t64 -154.5q0 -97 -62.5 -157t-166.5 -60z
M516 -179q40 0 65 24t25 66t-25 66t-65 24t-65 -24t-25 -66t22.5 -66t67.5 -24z" />
    <glyph glyph-name="uni068A.fina" unicode="&#x68a;" horiz-adv-x="1341" 
d="M92 246h684q-42 189 -102.5 305.5t-154 201t-228.5 140.5l115 287q270 -108 435 -334t242 -600h269q10 0 10 -8v-228q0 -10 -10 -10h-1260v246zM553 -512q-64 0 -101 39.5t-37 107.5q0 69 36.5 108.5t101.5 39.5q62 0 98.5 -39t36.5 -109q0 -68 -37.5 -107.5t-97.5 -39.5
z" />
    <glyph glyph-name="uni068B.fina" unicode="&#x68b;" horiz-adv-x="1341" 
d="M92 246h684q-42 189 -102.5 305.5t-154 201t-228.5 140.5l115 287q270 -108 435 -334t242 -600h269q10 0 10 -8v-228q0 -10 -10 -10h-1260v246zM178 1487h31v372h123v-239q56 92 162 92q91 0 130.5 -47.5t39.5 -151.5v-155h-486v129zM541 1487v10q0 54 -16 80t-54 26
q-52 0 -83.5 -27t-53.5 -67l-2 -22h209zM553 -512q-64 0 -101 39.5t-37 107.5q0 69 36.5 108.5t101.5 39.5q62 0 98.5 -39t36.5 -109q0 -68 -37.5 -107.5t-97.5 -39.5z" />
    <glyph glyph-name="uni068C.fina" unicode="&#x68c;" horiz-adv-x="1341" arabic-form="final" 
d="M92 246h684q-42 189 -102.5 305.5t-154 201t-228.5 140.5l115 287q270 -108 435 -334t242 -600h269q10 0 10 -8v-228q0 -10 -10 -10h-1260v246zM209 1354q-63 0 -100 39.5t-37 107.5q0 69 36.5 108.5t100.5 39.5q63 0 99 -39t36 -109t-37 -108.5t-98 -38.5zM557 1354
q-63 0 -100 39.5t-37 107.5q0 69 36.5 108.5t100.5 39.5t100 -39.5t36 -108.5q0 -68 -37.5 -107.5t-98.5 -39.5z" />
    <glyph glyph-name="uni068D.fina" unicode="&#x68d;" horiz-adv-x="1341" arabic-form="final" 
d="M92 246h684q-42 189 -102.5 305.5t-154 201t-228.5 140.5l115 287q270 -108 435 -334t242 -600h269q10 0 10 -8v-228q0 -10 -10 -10h-1260v246zM377 -512q-63 0 -100 39.5t-37 107.5q0 69 36.5 108.5t100.5 39.5q63 0 99 -39t36 -109t-37 -108.5t-98 -38.5zM725 -512
q-63 0 -100 39.5t-37 107.5q0 69 36.5 108.5t100.5 39.5t100 -39.5t36 -108.5q0 -68 -37.5 -107.5t-98.5 -39.5z" />
    <glyph glyph-name="uni068E.fina" unicode="&#x68e;" horiz-adv-x="1341" arabic-form="final" 
d="M92 246h684q-42 189 -102.5 305.5t-154 201t-228.5 140.5l115 287q270 -108 435 -334t242 -600h269q10 0 10 -8v-228q0 -10 -10 -10h-1260v246zM382 1684q-49 0 -82.5 31t-33.5 94q0 65 33.5 94.5t82.5 29.5q53 0 85 -33t32 -91q0 -56 -31.5 -90.5t-85.5 -34.5zM208 1354
q-63 0 -100 39.5t-37 107.5q0 69 36.5 108.5t100.5 39.5t100 -39.5t36 -108.5q0 -68 -37.5 -107.5t-98.5 -39.5zM557 1354q-64 0 -101 39.5t-37 107.5q0 69 36.5 108.5t101.5 39.5q62 0 98.5 -39t36.5 -109q0 -68 -37.5 -107.5t-97.5 -39.5z" />
    <glyph glyph-name="uni068F.fina" unicode="&#x68f;" horiz-adv-x="1341" 
d="M92 246h684q-42 189 -102.5 305.5t-154 201t-228.5 140.5l115 287q270 -108 435 -334t242 -600h269q10 0 10 -8v-228q0 -10 -10 -10h-1260v246zM385 1553q50 0 83.5 -31t33.5 -94q0 -65 -33.5 -95t-83.5 -30q-53 0 -84.5 34t-31.5 91q0 56 31.5 90.5t84.5 34.5zM559 1882
q64 0 101 -39t37 -108q0 -68 -36 -107.5t-102 -39.5q-62 0 -98.5 39t-36.5 108q0 68 37 107.5t98 39.5zM211 1882q64 0 101 -39t37 -108q0 -68 -36 -107.5t-102 -39.5q-62 0 -98.5 39t-36.5 108q0 68 37 107.5t98 39.5z" />
    <glyph glyph-name="uni0690.fina" unicode="&#x690;" horiz-adv-x="1341" 
d="M92 246h684q-42 189 -102.5 305.5t-154 201t-228.5 140.5l115 287q270 -108 435 -334t242 -600h269q10 0 10 -8v-228q0 -10 -10 -10h-1260v246zM226 1335q-51 0 -87 32.5t-36 100.5q0 69 36 101t87 32q57 0 90 -35.5t33 -97.5q0 -60 -33 -96.5t-90 -36.5zM539 1335
q-51 0 -87 32.5t-36 100.5q0 69 36 101t87 32t87 -32t36 -101q0 -68 -36 -100.5t-87 -32.5zM226 1665q-51 0 -87 32.5t-36 100.5q0 69 36 101t87 32q57 0 90 -35.5t33 -97.5q0 -60 -33 -96.5t-90 -36.5zM539 1665q-51 0 -87 32.5t-36 100.5q0 69 36 101t87 32t87 -32
t36 -101q0 -68 -36 -100.5t-87 -32.5z" />
    <glyph glyph-name="uni0691" unicode="&#x691;" horiz-adv-x="897" arabic-form="isolated" 
d="M295 -492q-105 0 -192.5 25t-184.5 90l123 199q54 -34 95.5 -47t99.5 -13q82 0 132 62.5t50 157.5v1032h305v-1047q0 -211 -116.5 -335t-311.5 -124zM321 1311h31v372h123v-239q56 92 162 92q91 0 130.5 -47.5t39.5 -151.5v-155h-486v129zM684 1311v10q0 54 -16 80
t-54 26q-52 0 -83.5 -27t-53.5 -67l-2 -22h209z" />
    <glyph glyph-name="uni0692.fina" unicode="&#x692;" horiz-adv-x="979" 
d="M989 246q10 0 10 -8v-228q0 -10 -10 -10h-266v-33q0 -211 -116.5 -335t-311.5 -124q-105 0 -192.5 25t-184.5 90l123 199q54 -34 95.5 -47t99.5 -13q82 0 132 62.5t50 157.5v1032h305v-768h266zM938 1601l-226 -408h-208l-228 408h201l129 -264l133 264h199z" />
    <glyph glyph-name="uni0693.fina" unicode="&#x693;" horiz-adv-x="979" 
d="M989 246q10 0 10 -8v-228q0 -10 -10 -10h-266v-33q0 -211 -116.5 -335t-311.5 -124q-105 0 -192.5 25t-184.5 90l123 199q54 -34 95.5 -47t99.5 -13q82 0 132 62.5t50 157.5v1032h305v-768h266zM535 -761q-103 0 -163 58.5t-60 156.5t60 156.5t163 58.5q101 0 165 -58.5
t64 -154.5q0 -97 -62.5 -157t-166.5 -60zM535 -636q40 0 65 24t25 66t-25 66t-65 24t-65 -24t-25 -66t22.5 -66t67.5 -24z" />
    <glyph glyph-name="uni0694.fina" unicode="&#x694;" horiz-adv-x="979" 
d="M989 246q10 0 10 -8v-228q0 -10 -10 -10h-266v-33q0 -211 -116.5 -335t-311.5 -124q-105 0 -192.5 25t-184.5 90l123 199q54 -34 95.5 -47t99.5 -13q82 0 132 62.5t50 157.5v1032h305v-768h266zM336 -947q-64 0 -101 39.5t-37 107.5q0 69 36.5 108.5t101.5 39.5
q62 0 98.5 -39t36.5 -109q0 -68 -37.5 -107.5t-97.5 -39.5z" />
    <glyph glyph-name="uni0695.fina" unicode="&#x695;" horiz-adv-x="979" 
d="M989 246q10 0 10 -8v-228q0 -10 -10 -10h-266v-33q0 -211 -116.5 -335t-311.5 -124q-105 0 -192.5 25t-184.5 90l123 199q54 -34 95.5 -47t99.5 -13q82 0 132 62.5t50 157.5v1032h305v-768h266zM680 -652l-226 -408h-208l-228 408h201l129 -264l133 264h199z" />
    <glyph glyph-name="uni0696.fina" unicode="&#x696;" horiz-adv-x="979" 
d="M989 246q10 0 10 -8v-228q0 -10 -10 -10h-266v-33q0 -211 -116.5 -335t-311.5 -124q-105 0 -192.5 25t-184.5 90l123 199q54 -34 95.5 -47t99.5 -13q82 0 132 62.5t50 157.5v1032h305v-768h266zM336 -947q-64 0 -101 39.5t-37 107.5q0 69 36.5 108.5t101.5 39.5
q62 0 98.5 -39t36.5 -109q0 -68 -37.5 -107.5t-97.5 -39.5zM213 0q-64 0 -101 39.5t-37 107.5q0 69 36.5 108.5t101.5 39.5q62 0 98.5 -39t36.5 -109q0 -68 -37.5 -107.5t-97.5 -39.5z" />
    <glyph glyph-name="uni0697.fina" unicode="&#x697;" horiz-adv-x="979" 
d="M989 246q10 0 10 -8v-228q0 -10 -10 -10h-266v-33q0 -211 -116.5 -335t-311.5 -124q-105 0 -192.5 25t-184.5 90l123 199q54 -34 95.5 -47t99.5 -13q82 0 132 62.5t50 157.5v1032h305v-768h266zM430 1190q-63 0 -100 39.5t-37 107.5q0 69 36.5 108.5t100.5 39.5
q63 0 99 -39t36 -109t-37 -108.5t-98 -38.5zM778 1190q-63 0 -100 39.5t-37 107.5q0 69 36.5 108.5t100.5 39.5t100 -39.5t36 -108.5q0 -68 -37.5 -107.5t-98.5 -39.5z" />
    <glyph glyph-name="uni0698" unicode="&#x698;" horiz-adv-x="897" arabic-form="isolated" 
d="M295 -492q-105 0 -192.5 25t-184.5 90l123 199q54 -34 95.5 -47t99.5 -13q82 0 132 62.5t50 157.5v1032h305v-1047q0 -211 -116.5 -335t-311.5 -124zM550 1520q-49 0 -82.5 31t-33.5 94q0 65 33.5 94.5t82.5 29.5q53 0 85 -33t32 -91q0 -56 -31.5 -90.5t-85.5 -34.5z
M376 1190q-63 0 -100 39.5t-37 107.5q0 69 36.5 108.5t100.5 39.5t100 -39.5t36 -108.5q0 -68 -37.5 -107.5t-98.5 -39.5zM725 1190q-64 0 -101 39.5t-37 107.5q0 69 36.5 108.5t101.5 39.5q62 0 98.5 -39t36.5 -109q0 -68 -37.5 -107.5t-97.5 -39.5z" />
    <glyph glyph-name="uni0699.fina" unicode="&#x699;" horiz-adv-x="979" 
d="M989 246q10 0 10 -8v-228q0 -10 -10 -10h-266v-33q0 -211 -116.5 -335t-311.5 -124q-105 0 -192.5 25t-184.5 90l123 199q54 -34 95.5 -47t99.5 -13q82 0 132 62.5t50 157.5v1032h305v-768h266zM443 1168q-51 0 -87 32.5t-36 100.5q0 69 36 101t87 32q57 0 90 -35.5
t33 -97.5q0 -60 -33 -96.5t-90 -36.5zM756 1168q-51 0 -87 32.5t-36 100.5q0 69 36 101t87 32t87 -32t36 -101q0 -68 -36 -100.5t-87 -32.5zM443 1498q-51 0 -87 32.5t-36 100.5q0 69 36 101t87 32q57 0 90 -35.5t33 -97.5q0 -60 -33 -96.5t-90 -36.5zM756 1498
q-51 0 -87 32.5t-36 100.5q0 69 36 101t87 32t87 -32t36 -101q0 -68 -36 -100.5t-87 -32.5z" />
    <glyph glyph-name="uni069A.init" unicode="&#x69a;" horiz-adv-x="2056" 
d="M-10 0q-10 0 -10 10v228q0 8 10 8h256v608h305v-608h174q102 0 149.5 56.5t47.5 180.5v371h305v-395q0 -50 -6 -92q50 -67 100 -94t129 -27h127v768h305v-1014h-426q-173 0 -321 154q-115 -154 -342 -154h-803zM1082 1190q-64 0 -101 39.5t-37 107.5q0 69 36.5 108.5
t101.5 39.5q62 0 98.5 -39t36.5 -109q0 -68 -37.5 -107.5t-97.5 -39.5zM1074 -512q-64 0 -101 39.5t-37 107.5q0 69 36.5 108.5t101.5 39.5q62 0 98.5 -39t36.5 -109q0 -68 -37.5 -107.5t-97.5 -39.5z" />
    <glyph glyph-name="uni069A.medi" unicode="&#x69a;" horiz-adv-x="2138" 
d="M2148 246q11 0 11 -8v-228q0 -10 -11 -10h-692q-173 0 -321 154q-115 -154 -342 -154h-803q-10 0 -10 10v228q0 8 10 8h256v608h305v-608h174q102 0 149.5 56.5t47.5 180.5v371h305v-395q0 -50 -6 -92q50 -67 100 -94t129 -27h127v768h305v-768h266zM1076 1190
q-64 0 -101 39.5t-37 107.5q0 69 36.5 108.5t101.5 39.5q62 0 98.5 -39t36.5 -109q0 -68 -37.5 -107.5t-97.5 -39.5zM1067 -512q-64 0 -101 39.5t-37 107.5q0 69 36.5 108.5t101.5 39.5q62 0 98.5 -39t36.5 -109q0 -68 -37.5 -107.5t-97.5 -39.5z" />
    <glyph glyph-name="uni069A.fina" unicode="&#x69a;" horiz-adv-x="2972" 
d="M2982 246q10 0 10 -8v-228q0 -10 -10 -10h-692q-174 0 -322 154q-115 -154 -342 -154h-244q-37 -492 -602 -492h-90q-171 0 -297.5 72t-193 202.5t-66.5 299.5q0 116 28 236.5t77 216.5h270q-32 -110 -51 -230.5t-19 -224.5q0 -149 75 -237.5t198 -88.5h61
q158 0 232.5 85.5t74.5 240.5v774h305v-608h175q102 0 149 57t47 180v371h305v-395q0 -50 -6 -92q51 -68 101.5 -94.5t128.5 -26.5h126v768h306v-768h266zM1911 1190q-64 0 -101 39.5t-37 107.5q0 69 36.5 108.5t101.5 39.5q62 0 98.5 -39t36.5 -109q0 -68 -37.5 -107.5
t-97.5 -39.5zM1903 -512q-64 0 -101 39.5t-37 107.5q0 69 36.5 108.5t101.5 39.5q62 0 98.5 -39t36.5 -109q0 -68 -37.5 -107.5t-97.5 -39.5z" />
    <glyph glyph-name="uni069B.init" unicode="&#x69b;" horiz-adv-x="2056" 
d="M-10 0q-10 0 -10 10v228q0 8 10 8h256v608h305v-608h174q102 0 149.5 56.5t47.5 180.5v371h305v-395q0 -50 -6 -92q50 -67 100 -94t129 -27h127v768h305v-1014h-426q-173 0 -321 154q-115 -154 -342 -154h-803zM1067 -749q-49 0 -82.5 31t-33.5 94q0 65 33.5 95t82.5 30
q54 0 85.5 -34.5t31.5 -90.5t-31.5 -90.5t-85.5 -34.5zM893 -491q-63 0 -100 40t-37 108t36 107.5t101 39.5q64 0 100 -39.5t36 -107.5q0 -69 -37.5 -108.5t-98.5 -39.5zM1242 -491q-64 0 -101 39t-37 109q0 68 36 107.5t102 39.5q62 0 98.5 -39t36.5 -108t-37.5 -108.5
t-97.5 -39.5z" />
    <glyph glyph-name="uni069B.medi" unicode="&#x69b;" horiz-adv-x="2138" 
d="M2148 246q11 0 11 -8v-228q0 -10 -11 -10h-692q-173 0 -321 154q-115 -154 -342 -154h-803q-10 0 -10 10v228q0 8 10 8h256v608h305v-608h174q102 0 149.5 56.5t47.5 180.5v371h305v-395q0 -50 -6 -92q50 -67 100 -94t129 -27h127v768h305v-768h266zM1067 -749
q-49 0 -82.5 31t-33.5 94q0 65 33.5 95t82.5 30q54 0 85.5 -34.5t31.5 -90.5t-31.5 -90.5t-85.5 -34.5zM893 -491q-63 0 -100 40t-37 108t36 107.5t101 39.5q64 0 100 -39.5t36 -107.5q0 -69 -37.5 -108.5t-98.5 -39.5zM1242 -491q-64 0 -101 39t-37 109q0 68 36 107.5
t102 39.5q62 0 98.5 -39t36.5 -108t-37.5 -108.5t-97.5 -39.5z" />
    <glyph glyph-name="uni069B.fina" unicode="&#x69b;" horiz-adv-x="2972" 
d="M2982 246q10 0 10 -8v-228q0 -10 -10 -10h-692q-174 0 -322 154q-115 -154 -342 -154h-244q-37 -492 -602 -492h-90q-171 0 -297.5 72t-193 202.5t-66.5 299.5q0 116 28 236.5t77 216.5h270q-32 -110 -51 -230.5t-19 -224.5q0 -149 75 -237.5t198 -88.5h61
q158 0 232.5 85.5t74.5 240.5v774h305v-608h175q102 0 149 57t47 180v371h305v-395q0 -50 -6 -92q51 -68 101.5 -94.5t128.5 -26.5h126v768h306v-768h266zM1890 -749q-49 0 -82.5 31t-33.5 94q0 65 33.5 95t82.5 30q54 0 85.5 -34.5t31.5 -90.5t-31.5 -90.5t-85.5 -34.5z
M1716 -491q-63 0 -100 40t-37 108t36 107.5t101 39.5q64 0 100 -39.5t36 -107.5q0 -69 -37.5 -108.5t-98.5 -39.5zM2065 -491q-64 0 -101 39t-37 109q0 68 36 107.5t102 39.5q62 0 98.5 -39t36.5 -108t-37.5 -108.5t-97.5 -39.5z" />
    <glyph glyph-name="uni069C.init" unicode="&#x69c;" horiz-adv-x="2056" 
d="M-10 0q-10 0 -10 10v228q0 8 10 8h256v608h305v-608h174q102 0 149.5 56.5t47.5 180.5v371h305v-395q0 -50 -6 -92q50 -67 100 -94t129 -27h127v768h305v-1014h-426q-173 0 -321 154q-115 -154 -342 -154h-803zM1085 1468q-49 0 -82.5 31t-33.5 94q0 65 33.5 94.5
t82.5 29.5q53 0 85 -33t32 -91q0 -56 -31.5 -90.5t-85.5 -34.5zM911 1138q-63 0 -100 39.5t-37 107.5q0 69 36.5 108.5t100.5 39.5t100 -39.5t36 -108.5q0 -68 -37.5 -107.5t-98.5 -39.5zM1260 1138q-64 0 -101 39.5t-37 107.5q0 69 36.5 108.5t101.5 39.5q62 0 98.5 -39
t36.5 -109q0 -68 -37.5 -107.5t-97.5 -39.5zM1079 -749q-49 0 -82.5 31t-33.5 94q0 65 33.5 95t82.5 30q54 0 85.5 -34.5t31.5 -90.5t-31.5 -90.5t-85.5 -34.5zM905 -491q-63 0 -100 40t-37 108t36 107.5t101 39.5q64 0 100 -39.5t36 -107.5q0 -69 -37.5 -108.5t-98.5 -39.5
zM1254 -491q-64 0 -101 39t-37 109q0 68 36 107.5t102 39.5q62 0 98.5 -39t36.5 -108t-37.5 -108.5t-97.5 -39.5z" />
    <glyph glyph-name="uni069C.medi" unicode="&#x69c;" horiz-adv-x="2138" 
d="M2148 246q11 0 11 -8v-228q0 -10 -11 -10h-692q-173 0 -321 154q-115 -154 -342 -154h-803q-10 0 -10 10v228q0 8 10 8h256v608h305v-608h174q102 0 149.5 56.5t47.5 180.5v371h305v-395q0 -50 -6 -92q50 -67 100 -94t129 -27h127v768h305v-768h266zM1085 1468
q-49 0 -82.5 31t-33.5 94q0 65 33.5 94.5t82.5 29.5q53 0 85 -33t32 -91q0 -56 -31.5 -90.5t-85.5 -34.5zM911 1138q-63 0 -100 39.5t-37 107.5q0 69 36.5 108.5t100.5 39.5t100 -39.5t36 -108.5q0 -68 -37.5 -107.5t-98.5 -39.5zM1260 1138q-64 0 -101 39.5t-37 107.5
q0 69 36.5 108.5t101.5 39.5q62 0 98.5 -39t36.5 -109q0 -68 -37.5 -107.5t-97.5 -39.5zM1079 -749q-49 0 -82.5 31t-33.5 94q0 65 33.5 95t82.5 30q54 0 85.5 -34.5t31.5 -90.5t-31.5 -90.5t-85.5 -34.5zM905 -491q-63 0 -100 40t-37 108t36 107.5t101 39.5q64 0 100 -39.5
t36 -107.5q0 -69 -37.5 -108.5t-98.5 -39.5zM1254 -491q-64 0 -101 39t-37 109q0 68 36 107.5t102 39.5q62 0 98.5 -39t36.5 -108t-37.5 -108.5t-97.5 -39.5z" />
    <glyph glyph-name="uni069C.fina" unicode="&#x69c;" horiz-adv-x="2972" 
d="M2982 246q10 0 10 -8v-228q0 -10 -10 -10h-692q-174 0 -322 154q-115 -154 -342 -154h-244q-37 -492 -602 -492h-90q-171 0 -297.5 72t-193 202.5t-66.5 299.5q0 116 28 236.5t77 216.5h270q-32 -110 -51 -230.5t-19 -224.5q0 -149 75 -237.5t198 -88.5h61
q158 0 232.5 85.5t74.5 240.5v774h305v-608h175q102 0 149 57t47 180v371h305v-395q0 -50 -6 -92q51 -68 101.5 -94.5t128.5 -26.5h126v768h306v-768h266zM1896 1468q-49 0 -82.5 31t-33.5 94q0 65 33.5 94.5t82.5 29.5q53 0 85 -33t32 -91q0 -56 -31.5 -90.5t-85.5 -34.5z
M1722 1138q-63 0 -100 39.5t-37 107.5q0 69 36.5 108.5t100.5 39.5t100 -39.5t36 -108.5q0 -68 -37.5 -107.5t-98.5 -39.5zM2071 1138q-64 0 -101 39.5t-37 107.5q0 69 36.5 108.5t101.5 39.5q62 0 98.5 -39t36.5 -109q0 -68 -37.5 -107.5t-97.5 -39.5zM1890 -749
q-49 0 -82.5 31t-33.5 94q0 65 33.5 95t82.5 30q54 0 85.5 -34.5t31.5 -90.5t-31.5 -90.5t-85.5 -34.5zM1716 -491q-63 0 -100 40t-37 108t36 107.5t101 39.5q64 0 100 -39.5t36 -107.5q0 -69 -37.5 -108.5t-98.5 -39.5zM2065 -491q-64 0 -101 39t-37 109q0 68 36 107.5
t102 39.5q62 0 98.5 -39t36.5 -108t-37.5 -108.5t-97.5 -39.5z" />
    <glyph glyph-name="uni069D.init" unicode="&#x69d;" horiz-adv-x="1753" 
d="M1294 246v252q0 149 -68.5 219.5t-211.5 70.5q-276 0 -477 -382v-160h757zM-10 0q-10 0 -10 10v228q0 8 10 8h241v768h306v-359q187 379 555 379q251 0 379 -132.5t128 -409.5v-492h-1609zM739 -512q-63 0 -100 39.5t-37 107.5q0 69 36.5 108.5t100.5 39.5q63 0 99 -39
t36 -109t-37 -108.5t-98 -38.5zM1087 -512q-63 0 -100 39.5t-37 107.5q0 69 36.5 108.5t100.5 39.5t100 -39.5t36 -108.5q0 -68 -37.5 -107.5t-98.5 -39.5z" />
    <glyph glyph-name="uni069D.medi" unicode="&#x69d;" horiz-adv-x="1855" 
d="M-10 0q-10 0 -10 10v228q0 8 10 8h241v768h306v-359q187 379 555 379q251 0 379 -132.5t128 -409.5v-246h267q10 0 10 -8v-228q0 -10 -10 -10h-1876zM1294 246v252q0 149 -68.5 219.5t-211.5 70.5q-276 0 -477 -382v-160h757zM714 -512q-63 0 -100 39.5t-37 107.5
q0 69 36.5 108.5t100.5 39.5q63 0 99 -39t36 -109t-37 -108.5t-98 -38.5zM1062 -512q-63 0 -100 39.5t-37 107.5q0 69 36.5 108.5t100.5 39.5t100 -39.5t36 -108.5q0 -68 -37.5 -107.5t-98.5 -39.5z" />
    <glyph glyph-name="uni069D.fina" unicode="&#x69d;" horiz-adv-x="2703" 
d="M2714 246q10 0 10 -8v-228q0 -10 -10 -10h-1332q-15 -242 -168 -367t-434 -125h-90q-171 0 -297.5 72t-193 202.5t-66.5 299.5q0 116 28 236.5t77 216.5h270q-32 -110 -51 -230.5t-19 -224.5q0 -149 75 -237.5t198 -88.5h61q158 0 232.5 85.5t74.5 240.5v934h305v-359
q187 379 555 379q252 0 380 -132.5t128 -409.5v-246h267zM2142 246v252q0 149 -68.5 219.5t-211.5 70.5q-277 0 -478 -382v-160h758zM1620 -512q-63 0 -100 39.5t-37 107.5q0 69 36.5 108.5t100.5 39.5q63 0 99 -39t36 -109t-37 -108.5t-98 -38.5zM1968 -512
q-63 0 -100 39.5t-37 107.5q0 69 36.5 108.5t100.5 39.5t100 -39.5t36 -108.5q0 -68 -37.5 -107.5t-98.5 -39.5z" />
    <glyph glyph-name="uni069E.init" unicode="&#x69e;" horiz-adv-x="1753" 
d="M1294 246v252q0 149 -68.5 219.5t-211.5 70.5q-276 0 -477 -382v-160h757zM-10 0q-10 0 -10 10v228q0 8 10 8h241v768h306v-359q187 379 555 379q251 0 379 -132.5t128 -409.5v-492h-1609zM1044 1520q-49 0 -82.5 31t-33.5 94q0 65 33.5 94.5t82.5 29.5q53 0 85 -33
t32 -91q0 -56 -31.5 -90.5t-85.5 -34.5zM870 1190q-63 0 -100 39.5t-37 107.5q0 69 36.5 108.5t100.5 39.5t100 -39.5t36 -108.5q0 -68 -37.5 -107.5t-98.5 -39.5zM1219 1190q-64 0 -101 39.5t-37 107.5q0 69 36.5 108.5t101.5 39.5q62 0 98.5 -39t36.5 -109
q0 -68 -37.5 -107.5t-97.5 -39.5z" />
    <glyph glyph-name="uni069E.medi" unicode="&#x69e;" horiz-adv-x="1855" 
d="M-10 0q-10 0 -10 10v228q0 8 10 8h241v768h306v-359q187 379 555 379q251 0 379 -132.5t128 -409.5v-246h267q10 0 10 -8v-228q0 -10 -10 -10h-1876zM1294 246v252q0 149 -68.5 219.5t-211.5 70.5q-276 0 -477 -382v-160h757zM1044 1520q-49 0 -82.5 31t-33.5 94
q0 65 33.5 94.5t82.5 29.5q53 0 85 -33t32 -91q0 -56 -31.5 -90.5t-85.5 -34.5zM870 1190q-63 0 -100 39.5t-37 107.5q0 69 36.5 108.5t100.5 39.5t100 -39.5t36 -108.5q0 -68 -37.5 -107.5t-98.5 -39.5zM1219 1190q-64 0 -101 39.5t-37 107.5q0 69 36.5 108.5t101.5 39.5
q62 0 98.5 -39t36.5 -109q0 -68 -37.5 -107.5t-97.5 -39.5z" />
    <glyph glyph-name="uni069E.fina" unicode="&#x69e;" horiz-adv-x="2703" 
d="M2714 246q10 0 10 -8v-228q0 -10 -10 -10h-1332q-15 -242 -168 -367t-434 -125h-90q-171 0 -297.5 72t-193 202.5t-66.5 299.5q0 116 28 236.5t77 216.5h270q-32 -110 -51 -230.5t-19 -224.5q0 -149 75 -237.5t198 -88.5h61q158 0 232.5 85.5t74.5 240.5v934h305v-359
q187 379 555 379q252 0 380 -132.5t128 -409.5v-246h267zM2142 246v252q0 149 -68.5 219.5t-211.5 70.5q-277 0 -478 -382v-160h758zM1869 1520q-49 0 -82.5 31t-33.5 94q0 65 33.5 94.5t82.5 29.5q53 0 85 -33t32 -91q0 -56 -31.5 -90.5t-85.5 -34.5zM1695 1190
q-63 0 -100 39.5t-37 107.5q0 69 36.5 108.5t100.5 39.5t100 -39.5t36 -108.5q0 -68 -37.5 -107.5t-98.5 -39.5zM2044 1190q-64 0 -101 39.5t-37 107.5q0 69 36.5 108.5t101.5 39.5q62 0 98.5 -39t36.5 -109q0 -68 -37.5 -107.5t-97.5 -39.5z" />
    <glyph glyph-name="uni069F.init" unicode="&#x69f;" horiz-adv-x="1815" 
d="M1356 246v252q0 149 -68.5 219.5t-212.5 70.5q-276 0 -477 -382v-160h758zM-10 0q-10 0 -10 10v228q0 8 10 8h303v1310h305v-901q187 379 555 379q252 0 380 -132.5t128 -409.5v-492h-1671zM1105 1520q-49 0 -82.5 31t-33.5 94q0 65 33.5 94.5t82.5 29.5q53 0 85 -33
t32 -91q0 -56 -31.5 -90.5t-85.5 -34.5zM931 1190q-63 0 -100 39.5t-37 107.5q0 69 36.5 108.5t100.5 39.5t100 -39.5t36 -108.5q0 -68 -37.5 -107.5t-98.5 -39.5zM1280 1190q-64 0 -101 39.5t-37 107.5q0 69 36.5 108.5t101.5 39.5q62 0 98.5 -39t36.5 -109
q0 -68 -37.5 -107.5t-97.5 -39.5z" />
    <glyph glyph-name="uni069F.medi" unicode="&#x69f;" horiz-adv-x="1855" 
d="M-10 0q-10 0 -10 10v228q0 8 10 8h241v1310h306v-901q187 379 555 379q251 0 379 -132.5t128 -409.5v-246h267q10 0 10 -8v-228q0 -10 -10 -10h-1876zM1294 246v252q0 149 -68.5 219.5t-211.5 70.5q-276 0 -477 -382v-160h757zM1044 1520q-49 0 -82.5 31t-33.5 94
q0 65 33.5 94.5t82.5 29.5q53 0 85 -33t32 -91q0 -56 -31.5 -90.5t-85.5 -34.5zM870 1190q-63 0 -100 39.5t-37 107.5q0 69 36.5 108.5t100.5 39.5t100 -39.5t36 -108.5q0 -68 -37.5 -107.5t-98.5 -39.5zM1219 1190q-64 0 -101 39.5t-37 107.5q0 69 36.5 108.5t101.5 39.5
q62 0 98.5 -39t36.5 -109q0 -68 -37.5 -107.5t-97.5 -39.5z" />
    <glyph glyph-name="uni069F.fina" unicode="&#x69f;" horiz-adv-x="1855" 
d="M41 246h190v1310h306v-901q187 379 555 379q251 0 379 -132.5t128 -409.5v-246h267q10 0 10 -8v-228q0 -10 -10 -10h-1825v246zM1294 246v252q0 149 -68.5 219.5t-211.5 70.5q-276 0 -477 -382v-160h757zM1044 1520q-49 0 -82.5 31t-33.5 94q0 65 33.5 94.5t82.5 29.5
q53 0 85 -33t32 -91q0 -56 -31.5 -90.5t-85.5 -34.5zM870 1190q-63 0 -100 39.5t-37 107.5q0 69 36.5 108.5t100.5 39.5t100 -39.5t36 -108.5q0 -68 -37.5 -107.5t-98.5 -39.5zM1219 1190q-64 0 -101 39.5t-37 107.5q0 69 36.5 108.5t101.5 39.5q62 0 98.5 -39t36.5 -109
q0 -68 -37.5 -107.5t-97.5 -39.5z" />
    <glyph glyph-name="uni06A0.init" unicode="&#x6a0;" horiz-adv-x="1161" 
d="M-10 0q-10 0 -10 10v228q0 8 10 8h315q-76 34 -121 115t-45 180q0 230 151.5 361.5t414.5 131.5q90 0 188.5 -20t155.5 -47l-86 -240q-79 34 -141 47.5t-126 13.5q-126 0 -195 -67t-69 -193q0 -124 71 -203t191 -79h375v-246h-1079zM665 1520q-49 0 -82.5 31t-33.5 94
q0 65 33.5 94.5t82.5 29.5q53 0 85 -33t32 -91q0 -56 -31.5 -90.5t-85.5 -34.5zM491 1190q-63 0 -100 39.5t-37 107.5q0 69 36.5 108.5t100.5 39.5t100 -39.5t36 -108.5q0 -68 -37.5 -107.5t-98.5 -39.5zM840 1190q-64 0 -101 39.5t-37 107.5q0 69 36.5 108.5t101.5 39.5
q62 0 98.5 -39t36.5 -109q0 -68 -37.5 -107.5t-97.5 -39.5z" />
    <glyph glyph-name="uni06A0.medi" unicode="&#x6a0;" horiz-adv-x="1237" 
d="M1247 246q10 0 10 -8v-228q0 -10 -10 -10h-260q-96 0 -200 32.5t-179 82.5q-188 -115 -381 -115h-237q-10 0 -10 10v228q0 8 10 8h205q46 0 101.5 11t90.5 28q-61 47 -129 148t-118 221t-68 231q120 100 275.5 157.5t299.5 57.5q293 0 514 -123q0 -222 -90 -407
t-244 -283q76 -41 185 -41h235zM612 412q240 143 258 405q-89 37 -231 37q-66 0 -142 -23t-120 -55q30 -113 92.5 -212t142.5 -152zM645 1561q-49 0 -82.5 31t-33.5 94q0 65 33.5 94.5t82.5 29.5q53 0 85 -33t32 -91q0 -56 -31.5 -90.5t-85.5 -34.5zM471 1231
q-63 0 -100 39.5t-37 107.5q0 69 36.5 108.5t100.5 39.5t100 -39.5t36 -108.5q0 -68 -37.5 -107.5t-98.5 -39.5zM820 1231q-64 0 -101 39.5t-37 107.5q0 69 36.5 108.5t101.5 39.5q62 0 98.5 -39t36.5 -109q0 -68 -37.5 -107.5t-97.5 -39.5z" />
    <glyph glyph-name="uni06A0.fina" unicode="&#x6a0;" horiz-adv-x="1298" 
d="M141 -252q0 135 81.5 259.5t252.5 248.5q-131 123 -223.5 292.5t-118.5 336.5q119 99 276 157t300 58q291 0 514 -123q0 -212 -86 -392t-250 -315q82 -24 186 -24h236q10 0 10 -8v-228q0 -10 -10 -10h-260q-82 0 -184 31t-193 84q-123 -92 -177.5 -175.5t-54.5 -175.5
q0 -85 58.5 -133.5t171.5 -48.5q137 0 301 43l35 -223q-111 -38 -205 -54t-193 -16q-210 0 -338.5 114.5t-128.5 301.5zM438 776q65 -221 242 -385q107 77 174.5 189.5t77.5 236.5q-52 21 -105.5 29t-126.5 8q-66 0 -143 -24t-119 -54zM706 1561q-49 0 -82.5 31t-33.5 94
q0 65 33.5 94.5t82.5 29.5q53 0 85 -33t32 -91q0 -56 -31.5 -90.5t-85.5 -34.5zM532 1231q-63 0 -100 39.5t-37 107.5q0 69 36.5 108.5t100.5 39.5t100 -39.5t36 -108.5q0 -68 -37.5 -107.5t-98.5 -39.5zM881 1231q-64 0 -101 39.5t-37 107.5q0 69 36.5 108.5t101.5 39.5
q62 0 98.5 -39t36.5 -109q0 -68 -37.5 -107.5t-97.5 -39.5z" />
    <glyph glyph-name="uni06A1.fina" unicode="&#x6a1;" horiz-adv-x="2273" 
d="M1722 246v522h-53q-140 0 -215.5 -69t-75.5 -199q0 -122 74 -188t213 -66h57zM2284 246q10 0 10 -8v-228q0 -10 -10 -10h-1743q-189 0 -298.5 110t-109.5 302q0 77 18 164.5t48 148.5h270q-31 -133 -31 -268q0 -95 53 -153t140 -58h532q-98 119 -98 270q0 229 158 363.5
t440 134.5h365v-768h256z" />
    <glyph glyph-name="uni06A2.init" unicode="&#x6a2;" horiz-adv-x="1321" 
d="M842 246v522h-54q-138 0 -214 -68.5t-76 -199.5q0 -122 73.5 -188t212.5 -66h58zM283 246q-99 117 -99 270q0 229 158 363.5t440 134.5h365v-1014h-1157q-10 0 -10 10v228q0 8 10 8h293zM680 -512q-64 0 -101 39.5t-37 107.5q0 69 36.5 108.5t101.5 39.5q62 0 98.5 -39
t36.5 -109q0 -68 -37.5 -107.5t-97.5 -39.5z" />
    <glyph glyph-name="uni06A2.medi" unicode="&#x6a2;" horiz-adv-x="1393" 
d="M1403 246q10 0 10 -8v-228q0 -10 -10 -10h-1413q-10 0 -10 10v228q0 8 10 8h293q-99 117 -99 270q0 229 158 363.5t440 134.5h365v-768h256zM842 246v522h-54q-138 0 -214 -68.5t-76 -199.5q0 -122 73.5 -188t212.5 -66h58zM680 -512q-64 0 -101 39.5t-37 107.5
q0 69 36.5 108.5t101.5 39.5q62 0 98.5 -39t36.5 -109q0 -68 -37.5 -107.5t-97.5 -39.5z" />
    <glyph glyph-name="uni06A2.fina" unicode="&#x6a2;" horiz-adv-x="2273" 
d="M1722 246v522h-53q-140 0 -215.5 -69t-75.5 -199q0 -122 74 -188t213 -66h57zM2284 246q10 0 10 -8v-228q0 -10 -10 -10h-1743q-189 0 -298.5 110t-109.5 302q0 77 18 164.5t48 148.5h270q-31 -133 -31 -268q0 -95 53 -153t140 -58h532q-98 119 -98 270q0 229 158 363.5
t440 134.5h365v-768h256zM1559 -512q-64 0 -101 39.5t-37 107.5q0 69 36.5 108.5t101.5 39.5q62 0 98.5 -39t36.5 -109q0 -68 -37.5 -107.5t-97.5 -39.5z" />
    <glyph glyph-name="uni06A3.init" unicode="&#x6a3;" horiz-adv-x="1321" 
d="M842 246v522h-54q-138 0 -214 -68.5t-76 -199.5q0 -122 73.5 -188t212.5 -66h58zM283 246q-99 117 -99 270q0 229 158 363.5t440 134.5h365v-1014h-1157q-10 0 -10 10v228q0 8 10 8h293zM658 1190q-64 0 -101 39.5t-37 107.5q0 69 36.5 108.5t101.5 39.5q62 0 98.5 -39
t36.5 -109q0 -68 -37.5 -107.5t-97.5 -39.5zM680 -512q-64 0 -101 39.5t-37 107.5q0 69 36.5 108.5t101.5 39.5q62 0 98.5 -39t36.5 -109q0 -68 -37.5 -107.5t-97.5 -39.5z" />
    <glyph glyph-name="uni06A3.medi" unicode="&#x6a3;" horiz-adv-x="1393" 
d="M1403 246q10 0 10 -8v-228q0 -10 -10 -10h-1413q-10 0 -10 10v228q0 8 10 8h293q-99 117 -99 270q0 229 158 363.5t440 134.5h365v-768h256zM842 246v522h-54q-138 0 -214 -68.5t-76 -199.5q0 -122 73.5 -188t212.5 -66h58zM676 1190q-64 0 -101 39.5t-37 107.5
q0 69 36.5 108.5t101.5 39.5q62 0 98.5 -39t36.5 -109q0 -68 -37.5 -107.5t-97.5 -39.5zM680 -512q-64 0 -101 39.5t-37 107.5q0 69 36.5 108.5t101.5 39.5q62 0 98.5 -39t36.5 -109q0 -68 -37.5 -107.5t-97.5 -39.5z" />
    <glyph glyph-name="uni06A3.fina" unicode="&#x6a3;" horiz-adv-x="2273" 
d="M1722 246v522h-53q-140 0 -215.5 -69t-75.5 -199q0 -122 74 -188t213 -66h57zM2284 246q10 0 10 -8v-228q0 -10 -10 -10h-1743q-189 0 -298.5 110t-109.5 302q0 77 18 164.5t48 148.5h270q-31 -133 -31 -268q0 -95 53 -153t140 -58h532q-98 119 -98 270q0 229 158 363.5
t440 134.5h365v-768h256zM1559 -512q-64 0 -101 39.5t-37 107.5q0 69 36.5 108.5t101.5 39.5q62 0 98.5 -39t36.5 -109q0 -68 -37.5 -107.5t-97.5 -39.5zM1588 1190q-64 0 -101 39.5t-37 107.5q0 69 36.5 108.5t101.5 39.5q62 0 98.5 -39t36.5 -109q0 -68 -37.5 -107.5
t-97.5 -39.5z" />
    <glyph glyph-name="uni06A4.init" unicode="&#x6a4;" horiz-adv-x="1321" arabic-form="initial" 
d="M842 246v522h-54q-138 0 -214 -68.5t-76 -199.5q0 -122 73.5 -188t212.5 -66h58zM283 246q-99 117 -99 270q0 229 158 363.5t440 134.5h365v-1014h-1157q-10 0 -10 10v228q0 8 10 8h293zM737 1520q-49 0 -82.5 31t-33.5 94q0 65 33.5 94.5t82.5 29.5q53 0 85 -33t32 -91
q0 -56 -31.5 -90.5t-85.5 -34.5zM563 1190q-63 0 -100 39.5t-37 107.5q0 69 36.5 108.5t100.5 39.5t100 -39.5t36 -108.5q0 -68 -37.5 -107.5t-98.5 -39.5zM912 1190q-64 0 -101 39.5t-37 107.5q0 69 36.5 108.5t101.5 39.5q62 0 98.5 -39t36.5 -109q0 -68 -37.5 -107.5
t-97.5 -39.5z" />
    <glyph glyph-name="uni06A4.medi" unicode="&#x6a4;" horiz-adv-x="1393" arabic-form="medial" 
d="M1403 246q10 0 10 -8v-228q0 -10 -10 -10h-1413q-10 0 -10 10v228q0 8 10 8h293q-99 117 -99 270q0 229 158 363.5t440 134.5h365v-768h256zM842 246v522h-54q-138 0 -214 -68.5t-76 -199.5q0 -122 73.5 -188t212.5 -66h58zM737 1520q-49 0 -82.5 31t-33.5 94
q0 65 33.5 94.5t82.5 29.5q53 0 85 -33t32 -91q0 -56 -31.5 -90.5t-85.5 -34.5zM563 1190q-63 0 -100 39.5t-37 107.5q0 69 36.5 108.5t100.5 39.5t100 -39.5t36 -108.5q0 -68 -37.5 -107.5t-98.5 -39.5zM912 1190q-64 0 -101 39.5t-37 107.5q0 69 36.5 108.5t101.5 39.5
q62 0 98.5 -39t36.5 -109q0 -68 -37.5 -107.5t-97.5 -39.5z" />
    <glyph glyph-name="uni06A4.fina" unicode="&#x6a4;" horiz-adv-x="2273" arabic-form="final" 
d="M1722 246v522h-53q-140 0 -215.5 -69t-75.5 -199q0 -122 74 -188t213 -66h57zM2284 246q10 0 10 -8v-228q0 -10 -10 -10h-1743q-189 0 -298.5 110t-109.5 302q0 77 18 164.5t48 148.5h270q-31 -133 -31 -268q0 -95 53 -153t140 -58h532q-98 119 -98 270q0 229 158 363.5
t440 134.5h365v-768h256zM1605 1520q-49 0 -82.5 31t-33.5 94q0 65 33.5 94.5t82.5 29.5q53 0 85 -33t32 -91q0 -56 -31.5 -90.5t-85.5 -34.5zM1431 1190q-63 0 -100 39.5t-37 107.5q0 69 36.5 108.5t100.5 39.5t100 -39.5t36 -108.5q0 -68 -37.5 -107.5t-98.5 -39.5z
M1780 1190q-64 0 -101 39.5t-37 107.5q0 69 36.5 108.5t101.5 39.5q62 0 98.5 -39t36.5 -109q0 -68 -37.5 -107.5t-97.5 -39.5z" />
    <glyph glyph-name="uni06A5.init" unicode="&#x6a5;" horiz-adv-x="1321" 
d="M842 246v522h-54q-138 0 -214 -68.5t-76 -199.5q0 -122 73.5 -188t212.5 -66h58zM283 246q-99 117 -99 270q0 229 158 363.5t440 134.5h365v-1014h-1157q-10 0 -10 10v228q0 8 10 8h293zM696 -769q-49 0 -82.5 31t-33.5 94q0 65 33.5 95t82.5 30q54 0 85.5 -34.5
t31.5 -90.5t-31.5 -90.5t-85.5 -34.5zM522 -511q-63 0 -100 40t-37 108t36 107.5t101 39.5q64 0 100 -39.5t36 -107.5q0 -69 -37.5 -108.5t-98.5 -39.5zM871 -511q-64 0 -101 39t-37 109q0 68 36 107.5t102 39.5q62 0 98.5 -39t36.5 -108t-37.5 -108.5t-97.5 -39.5z" />
    <glyph glyph-name="uni06A5.medi" unicode="&#x6a5;" horiz-adv-x="1393" 
d="M1403 246q10 0 10 -8v-228q0 -10 -10 -10h-1413q-10 0 -10 10v228q0 8 10 8h293q-99 117 -99 270q0 229 158 363.5t440 134.5h365v-768h256zM842 246v522h-54q-138 0 -214 -68.5t-76 -199.5q0 -122 73.5 -188t212.5 -66h58zM696 -769q-49 0 -82.5 31t-33.5 94
q0 65 33.5 95t82.5 30q54 0 85.5 -34.5t31.5 -90.5t-31.5 -90.5t-85.5 -34.5zM522 -511q-63 0 -100 40t-37 108t36 107.5t101 39.5q64 0 100 -39.5t36 -107.5q0 -69 -37.5 -108.5t-98.5 -39.5zM871 -511q-64 0 -101 39t-37 109q0 68 36 107.5t102 39.5q62 0 98.5 -39
t36.5 -108t-37.5 -108.5t-97.5 -39.5z" />
    <glyph glyph-name="uni06A5.fina" unicode="&#x6a5;" horiz-adv-x="2273" 
d="M1722 246v522h-53q-140 0 -215.5 -69t-75.5 -199q0 -122 74 -188t213 -66h57zM2284 246q10 0 10 -8v-228q0 -10 -10 -10h-1743q-189 0 -298.5 110t-109.5 302q0 77 18 164.5t48 148.5h270q-31 -133 -31 -268q0 -95 53 -153t140 -58h532q-98 119 -98 270q0 229 158 363.5
t440 134.5h365v-768h256zM1579 -769q-49 0 -82.5 31t-33.5 94q0 65 33.5 95t82.5 30q54 0 85.5 -34.5t31.5 -90.5t-31.5 -90.5t-85.5 -34.5zM1405 -511q-63 0 -100 40t-37 108t36 107.5t101 39.5q64 0 100 -39.5t36 -107.5q0 -69 -37.5 -108.5t-98.5 -39.5zM1754 -511
q-64 0 -101 39t-37 109q0 68 36 107.5t102 39.5q62 0 98.5 -39t36.5 -108t-37.5 -108.5t-97.5 -39.5z" />
    <glyph glyph-name="uni06A6.init" unicode="&#x6a6;" horiz-adv-x="1321" arabic-form="initial" 
d="M842 246v522h-54q-138 0 -214 -68.5t-76 -199.5q0 -122 73.5 -188t212.5 -66h58zM283 246q-99 117 -99 270q0 229 158 363.5t440 134.5h365v-1014h-1157q-10 0 -10 10v228q0 8 10 8h293zM564 1192q-51 0 -87 32.5t-36 100.5q0 69 36 101t87 32q57 0 90 -35.5t33 -97.5
q0 -60 -33 -96.5t-90 -36.5zM877 1192q-51 0 -87 32.5t-36 100.5q0 69 36 101t87 32t87 -32t36 -101q0 -68 -36 -100.5t-87 -32.5zM564 1522q-51 0 -87 32.5t-36 100.5q0 69 36 101t87 32q57 0 90 -35.5t33 -97.5q0 -60 -33 -96.5t-90 -36.5zM877 1522q-51 0 -87 32.5
t-36 100.5q0 69 36 101t87 32t87 -32t36 -101q0 -68 -36 -100.5t-87 -32.5z" />
    <glyph glyph-name="uni06A6.medi" unicode="&#x6a6;" horiz-adv-x="1393" arabic-form="medial" 
d="M1403 246q10 0 10 -8v-228q0 -10 -10 -10h-1413q-10 0 -10 10v228q0 8 10 8h293q-99 117 -99 270q0 229 158 363.5t440 134.5h365v-768h256zM842 246v522h-54q-138 0 -214 -68.5t-76 -199.5q0 -122 73.5 -188t212.5 -66h58zM564 1192q-51 0 -87 32.5t-36 100.5
q0 69 36 101t87 32q57 0 90 -35.5t33 -97.5q0 -60 -33 -96.5t-90 -36.5zM877 1192q-51 0 -87 32.5t-36 100.5q0 69 36 101t87 32t87 -32t36 -101q0 -68 -36 -100.5t-87 -32.5zM564 1522q-51 0 -87 32.5t-36 100.5q0 69 36 101t87 32q57 0 90 -35.5t33 -97.5q0 -60 -33 -96.5
t-90 -36.5zM877 1522q-51 0 -87 32.5t-36 100.5q0 69 36 101t87 32t87 -32t36 -101q0 -68 -36 -100.5t-87 -32.5z" />
    <glyph glyph-name="uni06A6.fina" unicode="&#x6a6;" horiz-adv-x="2273" arabic-form="final" 
d="M1722 246v522h-53q-140 0 -215.5 -69t-75.5 -199q0 -122 74 -188t213 -66h57zM2284 246q10 0 10 -8v-228q0 -10 -10 -10h-1743q-189 0 -298.5 110t-109.5 302q0 77 18 164.5t48 148.5h270q-31 -133 -31 -268q0 -95 53 -153t140 -58h532q-98 119 -98 270q0 229 158 363.5
t440 134.5h365v-768h256zM1442 1192q-51 0 -87 32.5t-36 100.5q0 69 36 101t87 32q57 0 90 -35.5t33 -97.5q0 -60 -33 -96.5t-90 -36.5zM1755 1192q-51 0 -87 32.5t-36 100.5q0 69 36 101t87 32t87 -32t36 -101q0 -68 -36 -100.5t-87 -32.5zM1442 1522q-51 0 -87 32.5
t-36 100.5q0 69 36 101t87 32q57 0 90 -35.5t33 -97.5q0 -60 -33 -96.5t-90 -36.5zM1755 1522q-51 0 -87 32.5t-36 100.5q0 69 36 101t87 32t87 -32t36 -101q0 -68 -36 -100.5t-87 -32.5z" />
    <glyph glyph-name="uni06A7.fina" unicode="&#x6a7;" horiz-adv-x="2042" 
d="M2052 246q10 0 10 -8v-228q0 -10 -10 -10h-258q-13 -252 -153 -372t-424 -120h-541q-154 0 -278.5 74t-194.5 206.5t-70 293.5q0 116 28 236.5t77 216.5h270q-32 -110 -51 -230.5t-19 -224.5q0 -154 84.5 -240t245.5 -86h346q198 0 287.5 56.5t89.5 179.5v10h-145h-12
q-147 0 -260.5 62t-176.5 177t-63 269t69.5 268t204.5 176t326 62h362v-768h256zM1491 246v522h-53q-291 0 -291 -272q0 -125 76 -187.5t211 -62.5h57zM1373 1190q-64 0 -101 39.5t-37 107.5q0 69 36.5 108.5t101.5 39.5q62 0 98.5 -39t36.5 -109q0 -68 -37.5 -107.5
t-97.5 -39.5z" />
    <glyph glyph-name="uni06A8.fina" unicode="&#x6a8;" horiz-adv-x="2042" 
d="M2052 246q10 0 10 -8v-228q0 -10 -10 -10h-258q-13 -252 -153 -372t-424 -120h-541q-154 0 -278.5 74t-194.5 206.5t-70 293.5q0 116 28 236.5t77 216.5h270q-32 -110 -51 -230.5t-19 -224.5q0 -154 84.5 -240t245.5 -86h346q198 0 287.5 56.5t89.5 179.5v10h-145h-12
q-147 0 -260.5 62t-176.5 177t-63 269t69.5 268t204.5 176t326 62h362v-768h256zM1491 246v522h-53q-291 0 -291 -272q0 -125 76 -187.5t211 -62.5h57zM1357 1520q-49 0 -82.5 31t-33.5 94q0 65 33.5 94.5t82.5 29.5q53 0 85 -33t32 -91q0 -56 -31.5 -90.5t-85.5 -34.5z
M1183 1190q-63 0 -100 39.5t-37 107.5q0 69 36.5 108.5t100.5 39.5t100 -39.5t36 -108.5q0 -68 -37.5 -107.5t-98.5 -39.5zM1532 1190q-64 0 -101 39.5t-37 107.5q0 69 36.5 108.5t101.5 39.5q62 0 98.5 -39t36.5 -109q0 -68 -37.5 -107.5t-97.5 -39.5z" />
    <glyph glyph-name="uni06A9" unicode="&#x6a9;" horiz-adv-x="1817" arabic-form="isolated" 
d="M541 0q-191 0 -299.5 110t-108.5 302q0 162 66 313h270q-31 -164 -31 -268q0 -98 52.5 -154.5t140.5 -56.5h727v329q0 124 -85 190t-241 66h-348v222q108 229 305.5 403.5t458.5 267.5l113 -274q-177 -53 -333.5 -158.5t-226.5 -214.5h78q584 0 584 -463v-614h-1122z" />
    <glyph glyph-name="uni06AA.init" unicode="&#x6aa;" horiz-adv-x="2124" 
d="M-20 246h1685q0 124 -85 190t-241 66h-1089v221q109 231 306.5 405.5t457.5 266.5l112 -275q-176 -53 -332.5 -158t-226.5 -214h819q291 0 437.5 -118t146.5 -345v-285h-1990v246z" />
    <glyph glyph-name="uni06AA.medi" unicode="&#x6aa;" horiz-adv-x="2195" 
d="M-20 246h1685q0 124 -85 190t-241 66h-1089v221q109 231 306.5 405.5t457.5 266.5l112 -275q-176 -53 -332.5 -158t-226.5 -214h819q291 0 437.5 -118t146.5 -345v-39h236q10 0 10 -8v-228q0 -10 -10 -10h-2226v246z" />
    <glyph glyph-name="uni06AA.fina" unicode="&#x6aa;" horiz-adv-x="2437" 
d="M836 0q-217 0 -434 34.5t-361 96.5l43 180q320 -65 653 -65h1170q0 124 -85 190t-241 66h-1089v221q109 231 306 405t457 267l113 -275q-176 -53 -332.5 -158t-226.5 -214h819q290 0 437 -118t147 -345v-39h235q11 0 11 -8v-228q0 -10 -11 -10h-1611z" />
    <glyph glyph-name="uni06AB.init" unicode="&#x6ab;" horiz-adv-x="1251" 
d="M766 999q-78 0 -133.5 34.5t-77.5 99.5q-56 -64 -119 -160h78q290 0 437 -118t147 -345v-510h-1118v246h813v225q0 124 -85 190t-241 66h-348v221q136 289 336 492t428 284l112 -274q-58 -18 -112 -47q51 -25 81.5 -72.5t30.5 -113.5q0 -98 -62 -158t-167 -60zM766 1124
q40 0 65 24t25 66t-25 66.5t-65 24.5t-65 -24.5t-25 -66.5t22.5 -66t67.5 -24z" />
    <glyph glyph-name="uni06AB.medi" unicode="&#x6ab;" horiz-adv-x="1352" 
d="M766 999q-78 0 -133.5 34.5t-77.5 99.5q-56 -64 -119 -160h78q290 0 437 -118t147 -345v-264h264q10 0 10 -8v-228q0 -10 -10 -10h-1382v246h813v225q0 124 -85 190t-241 66h-348v221q136 289 336 492t428 284l112 -274q-58 -18 -112 -47q51 -25 81.5 -72.5t30.5 -113.5
q0 -98 -62 -158t-167 -60zM766 1124q40 0 65 24t25 66t-25 66.5t-65 24.5t-65 -24.5t-25 -66.5t22.5 -66t67.5 -24z" />
    <glyph glyph-name="uni06AB.fina" unicode="&#x6ab;" horiz-adv-x="1919" 
d="M1329 999q-78 0 -133 34t-78 97q-48 -55 -117 -157h78q290 0 437 -118t147 -345v-264h266q10 0 10 -8v-228q0 -10 -10 -10h-1388q-191 0 -299.5 110t-108.5 302q0 162 66 313h270q-31 -164 -31 -268q0 -98 52.5 -154.5t140.5 -56.5h727v225q0 124 -85 190t-241 66h-348
v221q136 289 336 492t428 284l113 -274q-50 -15 -115 -47q51 -25 82 -72.5t31 -113.5q0 -99 -63 -158.5t-167 -59.5zM1329 1124q40 0 65 24t25 66t-25 66.5t-65 24.5t-65 -24.5t-25 -66.5t22.5 -66t67.5 -24z" />
    <glyph glyph-name="uni06AC.init" unicode="&#x6ac;" horiz-adv-x="1249" 
d="M-10 0q-10 0 -10 10v228q0 8 10 8h801v329q0 124 -85 190t-241 66h-348v222q108 229 305.5 403.5t458.5 267.5l112 -274q-178 -54 -333 -159t-226 -214h78q584 0 584 -463v-614h-1106zM263 1536q-64 0 -101 39.5t-37 107.5q0 69 36.5 108.5t101.5 39.5q62 0 98.5 -39
t36.5 -109q0 -68 -37.5 -107.5t-97.5 -39.5z" />
    <glyph glyph-name="uni06AC.medi" unicode="&#x6ac;" horiz-adv-x="1352" 
d="M-10 0q-10 0 -10 10v228q0 8 10 8h801v329q0 124 -85 190t-241 66h-348v222q108 229 305.5 403.5t458.5 267.5l112 -274q-178 -54 -333 -159t-226 -214h78q584 0 584 -463v-368h266q10 0 10 -8v-228q0 -10 -10 -10h-1372zM263 1536q-64 0 -101 39.5t-37 107.5
q0 69 36.5 108.5t101.5 39.5q62 0 98.5 -39t36.5 -109q0 -68 -37.5 -107.5t-97.5 -39.5z" />
    <glyph glyph-name="uni06AC.fina" unicode="&#x6ac;" horiz-adv-x="1858" 
d="M541 0q-189 0 -298.5 110t-109.5 302q0 77 18 164.5t48 148.5h270q-31 -133 -31 -268q0 -95 53 -153t140 -58h665v1310h306v-1310h266q10 0 10 -8v-228q0 -10 -10 -10h-1327zM662 739l116 19q-40 20 -66 55.5t-26 83.5q0 86 60.5 136t164.5 50q98 0 168 -36l-41 -105
q-54 27 -110 27q-45 0 -72 -27.5t-27 -71.5q0 -61 62 -92l36 6q103 16 167 21v-119q-133 -8 -432 -51v104zM846 1313q-64 0 -101 39.5t-37 107.5q0 69 36.5 108.5t101.5 39.5q62 0 98.5 -39t36.5 -109q0 -68 -37.5 -107.5t-97.5 -39.5z" />
    <glyph glyph-name="uni06AD.init" unicode="&#x6ad;" horiz-adv-x="1249" arabic-form="initial" 
d="M-10 0q-10 0 -10 10v228q0 8 10 8h801v329q0 124 -85 190t-241 66h-348v222q108 229 305.5 403.5t458.5 267.5l112 -274q-178 -54 -333 -159t-226 -214h78q584 0 584 -463v-614h-1106zM178 1696q-36 0 -71 32t-35 72q0 37 30 67.5t68 30.5q35 0 68.5 -36t33.5 -70
q0 -36 -28 -65t-66 -31zM309 1729q0 44 32.5 78t76.5 34q47 0 87 -39.5t40 -85.5q0 -40 -35 -75t-76 -35q-49 0 -86 39.5t-39 83.5zM100 1542q0 43 32.5 78t76.5 35q47 0 87 -39.5t40 -85.5q0 -42 -35.5 -76.5t-75.5 -34.5q-47 0 -85.5 39t-39.5 84z" />
    <glyph glyph-name="uni06AD.medi" unicode="&#x6ad;" horiz-adv-x="1352" arabic-form="medial" 
d="M-10 0q-10 0 -10 10v228q0 8 10 8h801v329q0 124 -85 190t-241 66h-348v222q108 229 305.5 403.5t458.5 267.5l112 -274q-178 -54 -333 -159t-226 -214h78q584 0 584 -463v-368h266q10 0 10 -8v-228q0 -10 -10 -10h-1372zM178 1696q-36 0 -71 32t-35 72q0 37 30 67.5
t68 30.5q35 0 68.5 -36t33.5 -70q0 -36 -28 -65t-66 -31zM309 1729q0 44 32.5 78t76.5 34q47 0 87 -39.5t40 -85.5q0 -40 -35 -75t-76 -35q-49 0 -86 39.5t-39 83.5zM100 1542q0 43 32.5 78t76.5 35q47 0 87 -39.5t40 -85.5q0 -42 -35.5 -76.5t-75.5 -34.5q-47 0 -85.5 39
t-39.5 84z" />
    <glyph glyph-name="uni06AD.fina" unicode="&#x6ad;" horiz-adv-x="1858" arabic-form="final" 
d="M541 0q-189 0 -298.5 110t-109.5 302q0 77 18 164.5t48 148.5h270q-31 -133 -31 -268q0 -95 53 -153t140 -58h665v1310h306v-1310h266q10 0 10 -8v-228q0 -10 -10 -10h-1327zM662 739l116 19q-40 20 -66 55.5t-26 83.5q0 86 60.5 136t164.5 50q98 0 168 -36l-41 -105
q-54 27 -110 27q-45 0 -72 -27.5t-27 -71.5q0 -61 62 -92l36 6q103 16 167 21v-119q-133 -8 -432 -51v104zM860 1569q-49 0 -82.5 31t-33.5 94q0 65 33.5 94.5t82.5 29.5q53 0 85 -33t32 -91q0 -56 -31.5 -90.5t-85.5 -34.5zM686 1239q-63 0 -100 39.5t-37 107.5
q0 69 36.5 108.5t100.5 39.5t100 -39.5t36 -108.5q0 -68 -37.5 -107.5t-98.5 -39.5zM1035 1239q-64 0 -101 39.5t-37 107.5q0 69 36.5 108.5t101.5 39.5q62 0 98.5 -39t36.5 -109q0 -68 -37.5 -107.5t-97.5 -39.5z" />
    <glyph glyph-name="uni06AE.init" unicode="&#x6ae;" horiz-adv-x="1249" 
d="M-10 0q-10 0 -10 10v228q0 8 10 8h801v329q0 124 -85 190t-241 66h-348v222q108 229 305.5 403.5t458.5 267.5l112 -274q-178 -54 -333 -159t-226 -214h78q584 0 584 -463v-614h-1106zM526 -769q-49 0 -82.5 31t-33.5 94q0 65 33.5 95t82.5 30q54 0 85.5 -34.5
t31.5 -90.5t-31.5 -90.5t-85.5 -34.5zM352 -511q-63 0 -100 40t-37 108t36 107.5t101 39.5q64 0 100 -39.5t36 -107.5q0 -69 -37.5 -108.5t-98.5 -39.5zM701 -511q-64 0 -101 39t-37 109q0 68 36 107.5t102 39.5q62 0 98.5 -39t36.5 -108t-37.5 -108.5t-97.5 -39.5z" />
    <glyph glyph-name="uni06AE.medi" unicode="&#x6ae;" horiz-adv-x="1352" 
d="M-10 0q-10 0 -10 10v228q0 8 10 8h801v329q0 124 -85 190t-241 66h-348v222q108 229 305.5 403.5t458.5 267.5l112 -274q-178 -54 -333 -159t-226 -214h78q584 0 584 -463v-368h266q10 0 10 -8v-228q0 -10 -10 -10h-1372zM526 -769q-49 0 -82.5 31t-33.5 94q0 65 33.5 95
t82.5 30q54 0 85.5 -34.5t31.5 -90.5t-31.5 -90.5t-85.5 -34.5zM352 -511q-63 0 -100 40t-37 108t36 107.5t101 39.5q64 0 100 -39.5t36 -107.5q0 -69 -37.5 -108.5t-98.5 -39.5zM701 -511q-64 0 -101 39t-37 109q0 68 36 107.5t102 39.5q62 0 98.5 -39t36.5 -108
t-37.5 -108.5t-97.5 -39.5z" />
    <glyph glyph-name="uni06AE.fina" unicode="&#x6ae;" horiz-adv-x="1858" 
d="M541 0q-189 0 -298.5 110t-109.5 302q0 77 18 164.5t48 148.5h270q-31 -133 -31 -268q0 -95 53 -153t140 -58h665v1310h306v-1310h266q10 0 10 -8v-228q0 -10 -10 -10h-1327zM662 739l116 19q-40 20 -66 55.5t-26 83.5q0 86 60.5 136t164.5 50q98 0 168 -36l-41 -105
q-54 27 -110 27q-45 0 -72 -27.5t-27 -71.5q0 -61 62 -92l36 6q103 16 167 21v-119q-133 -8 -432 -51v104zM903 -769q-49 0 -82.5 31t-33.5 94q0 65 33.5 95t82.5 30q54 0 85.5 -34.5t31.5 -90.5t-31.5 -90.5t-85.5 -34.5zM729 -511q-63 0 -100 40t-37 108t36 107.5
t101 39.5q64 0 100 -39.5t36 -107.5q0 -69 -37.5 -108.5t-98.5 -39.5zM1078 -511q-64 0 -101 39t-37 109q0 68 36 107.5t102 39.5q62 0 98.5 -39t36.5 -108t-37.5 -108.5t-97.5 -39.5z" />
    <glyph glyph-name="uni06AF" unicode="&#x6af;" horiz-adv-x="1817" arabic-form="isolated" 
d="M541 0q-191 0 -299.5 110t-108.5 302q0 162 66 313h270q-31 -164 -31 -268q0 -98 52.5 -154.5t140.5 -56.5h727v329q0 124 -85 190t-241 66h-348v222q108 229 305.5 403.5t458.5 267.5l113 -274q-177 -53 -333.5 -158.5t-226.5 -214.5h78q584 0 584 -463v-614h-1122z
M610 1395q66 151 284.5 340t438.5 282l59 -157q-150 -57 -301.5 -160.5t-264 -222.5t-161.5 -224z" />
    <glyph glyph-name="uni06B0.init" unicode="&#x6b0;" horiz-adv-x="1251" 
d="M766 999q-78 0 -133.5 34.5t-77.5 99.5q-56 -64 -119 -160h78q290 0 437 -118t147 -345v-510h-1118v246h813v225q0 124 -85 190t-241 66h-348v221q136 289 336 492t428 284l112 -274q-58 -18 -112 -47q51 -25 81.5 -72.5t30.5 -113.5q0 -98 -62 -158t-167 -60zM766 1124
q40 0 65 24t25 66t-25 66.5t-65 24.5t-65 -24.5t-25 -66.5t22.5 -66t67.5 -24zM53 1313q49 112 177 258.5t273.5 259.5t272.5 166l59 -158q-134 -51 -282 -162t-270 -251t-175 -255z" />
    <glyph glyph-name="uni06B0.medi" unicode="&#x6b0;" horiz-adv-x="1352" 
d="M766 999q-78 0 -133.5 34.5t-77.5 99.5q-56 -64 -119 -160h78q290 0 437 -118t147 -345v-264h264q10 0 10 -8v-228q0 -10 -10 -10h-1382v246h813v225q0 124 -85 190t-241 66h-348v221q136 289 336 492t428 284l112 -274q-58 -18 -112 -47q51 -25 81.5 -72.5t30.5 -113.5
q0 -98 -62 -158t-167 -60zM766 1124q40 0 65 24t25 66t-25 66.5t-65 24.5t-65 -24.5t-25 -66.5t22.5 -66t67.5 -24zM53 1313q49 112 177 258.5t273.5 259.5t272.5 166l59 -158q-134 -51 -282 -162t-270 -251t-175 -255z" />
    <glyph glyph-name="uni06B0.fina" unicode="&#x6b0;" horiz-adv-x="1919" 
d="M1329 999q-78 0 -133 34t-78 97q-48 -55 -117 -157h78q290 0 437 -118t147 -345v-264h266q10 0 10 -8v-228q0 -10 -10 -10h-1388q-191 0 -299.5 110t-108.5 302q0 162 66 313h270q-31 -164 -31 -268q0 -98 52.5 -154.5t140.5 -56.5h727v225q0 124 -85 190t-241 66h-348
v221q136 289 336 492t428 284l113 -274q-50 -15 -115 -47q51 -25 82 -72.5t31 -113.5q0 -99 -63 -158.5t-167 -59.5zM1329 1124q40 0 65 24t25 66t-25 66.5t-65 24.5t-65 -24.5t-25 -66.5t22.5 -66t67.5 -24zM618 1313q49 112 177 258.5t273.5 259.5t272.5 166l59 -158
q-134 -51 -282 -162t-270 -251t-175 -255z" />
    <glyph glyph-name="uni06B1.init" unicode="&#x6b1;" horiz-adv-x="1249" arabic-form="initial" 
d="M-10 0q-10 0 -10 10v228q0 8 10 8h801v329q0 124 -85 190t-241 66h-348v222q108 229 305.5 403.5t458.5 267.5l112 -274q-178 -54 -333 -159t-226 -214h78q584 0 584 -463v-614h-1106zM43 1395q66 151 284.5 340t438.5 282l59 -157q-150 -57 -301.5 -160.5t-264 -222.5
t-161.5 -224zM214 1991q0 44 32.5 78t75.5 34q48 0 87.5 -39t39.5 -86q0 -39 -34 -74.5t-76 -35.5q-48 0 -85.5 38.5t-39.5 84.5zM1 1810q0 45 33 79t75 34q48 0 87.5 -39t39.5 -86q0 -39 -34 -74.5t-76 -35.5q-47 0 -85 37.5t-40 84.5z" />
    <glyph glyph-name="uni06B1.medi" unicode="&#x6b1;" horiz-adv-x="1352" arabic-form="medial" 
d="M-10 0q-10 0 -10 10v228q0 8 10 8h801v329q0 124 -85 190t-241 66h-348v222q108 229 305.5 403.5t458.5 267.5l112 -274q-178 -54 -333 -159t-226 -214h78q584 0 584 -463v-368h266q10 0 10 -8v-228q0 -10 -10 -10h-1372zM43 1395q66 151 284.5 340t438.5 282l59 -157
q-150 -57 -301.5 -160.5t-264 -222.5t-161.5 -224zM214 1991q0 44 32.5 78t75.5 34q48 0 87.5 -39t39.5 -86q0 -39 -34 -74.5t-76 -35.5q-48 0 -85.5 38.5t-39.5 84.5zM1 1810q0 45 33 79t75 34q48 0 87.5 -39t39.5 -86q0 -39 -34 -74.5t-76 -35.5q-47 0 -85 37.5t-40 84.5z
" />
    <glyph glyph-name="uni06B1.fina" unicode="&#x6b1;" horiz-adv-x="1919" arabic-form="final" 
d="M541 0q-191 0 -299.5 110t-108.5 302q0 162 66 313h270q-31 -164 -31 -268q0 -98 52.5 -154.5t140.5 -56.5h727v329q0 124 -85 190t-241 66h-348v222q108 229 305.5 403.5t458.5 267.5l113 -274q-177 -53 -333.5 -158.5t-226.5 -214.5h78q584 0 584 -463v-368h266
q10 0 10 -8v-228q0 -10 -10 -10h-1388zM610 1395q66 151 284.5 340t438.5 282l59 -157q-150 -57 -301.5 -160.5t-264 -222.5t-161.5 -224zM772 1991q0 44 32.5 78t75.5 34q48 0 87.5 -39t39.5 -86q0 -39 -34 -74.5t-76 -35.5q-48 0 -85.5 38.5t-39.5 84.5zM559 1810
q0 45 33 79t75 34q48 0 87.5 -39t39.5 -86q0 -39 -34 -74.5t-76 -35.5q-47 0 -85 37.5t-40 84.5z" />
    <glyph glyph-name="uni06B2.init" unicode="&#x6b2;" horiz-adv-x="1249" 
d="M-10 0q-10 0 -10 10v228q0 8 10 8h801v329q0 124 -85 190t-241 66h-348v222q108 229 305.5 403.5t458.5 267.5l112 -274q-178 -54 -333 -159t-226 -214h78q584 0 584 -463v-614h-1106zM43 1395q66 151 284.5 340t438.5 282l59 -157q-150 -57 -301.5 -160.5t-264 -222.5
t-161.5 -224zM358 -512q-63 0 -100 39.5t-37 107.5q0 69 36.5 108.5t100.5 39.5q63 0 99 -39t36 -109t-37 -108.5t-98 -38.5zM706 -512q-63 0 -100 39.5t-37 107.5q0 69 36.5 108.5t100.5 39.5t100 -39.5t36 -108.5q0 -68 -37.5 -107.5t-98.5 -39.5z" />
    <glyph glyph-name="uni06B2.medi" unicode="&#x6b2;" horiz-adv-x="1352" 
d="M-10 0q-10 0 -10 10v228q0 8 10 8h801v329q0 124 -85 190t-241 66h-348v222q108 229 305.5 403.5t458.5 267.5l112 -274q-178 -54 -333 -159t-226 -214h78q584 0 584 -463v-368h266q10 0 10 -8v-228q0 -10 -10 -10h-1372zM43 1395q66 151 284.5 340t438.5 282l59 -157
q-150 -57 -301.5 -160.5t-264 -222.5t-161.5 -224zM422 -512q-63 0 -100 39.5t-37 107.5q0 69 36.5 108.5t100.5 39.5q63 0 99 -39t36 -109t-37 -108.5t-98 -38.5zM770 -512q-63 0 -100 39.5t-37 107.5q0 69 36.5 108.5t100.5 39.5t100 -39.5t36 -108.5q0 -68 -37.5 -107.5
t-98.5 -39.5z" />
    <glyph glyph-name="uni06B2.fina" unicode="&#x6b2;" horiz-adv-x="1919" 
d="M541 0q-191 0 -299.5 110t-108.5 302q0 162 66 313h270q-31 -164 -31 -268q0 -98 52.5 -154.5t140.5 -56.5h727v329q0 124 -85 190t-241 66h-348v222q108 229 305.5 403.5t458.5 267.5l113 -274q-177 -53 -333.5 -158.5t-226.5 -214.5h78q584 0 584 -463v-368h266
q10 0 10 -8v-228q0 -10 -10 -10h-1388zM610 1395q66 151 284.5 340t438.5 282l59 -157q-150 -57 -301.5 -160.5t-264 -222.5t-161.5 -224zM760 -512q-63 0 -100 39.5t-37 107.5q0 69 36.5 108.5t100.5 39.5q63 0 99 -39t36 -109t-37 -108.5t-98 -38.5zM1108 -512
q-63 0 -100 39.5t-37 107.5q0 69 36.5 108.5t100.5 39.5t100 -39.5t36 -108.5q0 -68 -37.5 -107.5t-98.5 -39.5z" />
    <glyph glyph-name="uni06B3.init" unicode="&#x6b3;" horiz-adv-x="1249" arabic-form="initial" 
d="M-10 0q-10 0 -10 10v228q0 8 10 8h801v329q0 124 -85 190t-241 66h-348v222q108 229 305.5 403.5t458.5 267.5l112 -274q-178 -54 -333 -159t-226 -214h78q584 0 584 -463v-614h-1106zM43 1395q66 151 284.5 340t438.5 282l59 -157q-150 -57 -301.5 -160.5t-264 -222.5
t-161.5 -224zM463 -893q-61 0 -99 38t-38 110q0 71 37 109t100 38t99 -39t36 -108q0 -71 -36.5 -109.5t-98.5 -38.5zM463 -512q-61 0 -99 38t-38 109q0 72 36.5 110t100.5 38q63 0 99 -39t36 -109t-37 -108.5t-98 -38.5z" />
    <glyph glyph-name="uni06B3.medi" unicode="&#x6b3;" horiz-adv-x="1352" arabic-form="medial" 
d="M-10 0q-10 0 -10 10v228q0 8 10 8h801v329q0 124 -85 190t-241 66h-348v222q108 229 305.5 403.5t458.5 267.5l112 -274q-178 -54 -333 -159t-226 -214h78q584 0 584 -463v-368h266q10 0 10 -8v-228q0 -10 -10 -10h-1372zM43 1395q66 151 284.5 340t438.5 282l59 -157
q-150 -57 -301.5 -160.5t-264 -222.5t-161.5 -224zM463 -893q-61 0 -99 38t-38 110q0 71 37 109t100 38t99 -39t36 -108q0 -71 -36.5 -109.5t-98.5 -38.5zM463 -512q-61 0 -99 38t-38 109q0 72 36.5 110t100.5 38q63 0 99 -39t36 -109t-37 -108.5t-98 -38.5z" />
    <glyph glyph-name="uni06B3.fina" unicode="&#x6b3;" horiz-adv-x="1919" arabic-form="final" 
d="M541 0q-191 0 -299.5 110t-108.5 302q0 162 66 313h270q-31 -164 -31 -268q0 -98 52.5 -154.5t140.5 -56.5h727v329q0 124 -85 190t-241 66h-348v222q108 229 305.5 403.5t458.5 267.5l113 -274q-177 -53 -333.5 -158.5t-226.5 -214.5h78q584 0 584 -463v-368h266
q10 0 10 -8v-228q0 -10 -10 -10h-1388zM610 1395q66 151 284.5 340t438.5 282l59 -157q-150 -57 -301.5 -160.5t-264 -222.5t-161.5 -224zM961 -893q-61 0 -99 38t-38 110q0 71 37 109t100 38t99 -39t36 -108q0 -71 -36.5 -109.5t-98.5 -38.5zM961 -512q-61 0 -99 38
t-38 109q0 72 36.5 110t100.5 38q63 0 99 -39t36 -109t-37 -108.5t-98 -38.5z" />
    <glyph glyph-name="uni06B4.init" unicode="&#x6b4;" horiz-adv-x="1249" 
d="M-10 0q-10 0 -10 10v228q0 8 10 8h801v329q0 124 -85 190t-241 66h-348v222q108 229 305.5 403.5t458.5 267.5l112 -274q-178 -54 -333 -159t-226 -214h78q584 0 584 -463v-614h-1106zM43 1395q66 151 284.5 340t438.5 282l59 -157q-150 -57 -301.5 -160.5t-264 -222.5
t-161.5 -224zM107 1964q-36 0 -71 32t-35 72q0 36 29 67.5t69 31.5q36 0 69 -36.5t33 -70.5q0 -36 -28 -65t-66 -31zM238 1997q0 44 32.5 78t76.5 34q47 0 87 -39.5t40 -84.5q0 -41 -34.5 -76t-76.5 -35q-49 0 -86 39.5t-39 83.5zM29 1810q0 45 33 79t76 34q47 0 87 -39.5
t40 -85.5q0 -40 -35 -75t-76 -35q-48 0 -85.5 39t-39.5 83z" />
    <glyph glyph-name="uni06B4.medi" unicode="&#x6b4;" horiz-adv-x="1352" 
d="M-10 0q-10 0 -10 10v228q0 8 10 8h801v329q0 124 -85 190t-241 66h-348v222q108 229 305.5 403.5t458.5 267.5l112 -274q-178 -54 -333 -159t-226 -214h78q584 0 584 -463v-368h266q10 0 10 -8v-228q0 -10 -10 -10h-1372zM43 1395q66 151 284.5 340t438.5 282l59 -157
q-150 -57 -301.5 -160.5t-264 -222.5t-161.5 -224zM107 1964q-36 0 -71 32t-35 72q0 36 29 67.5t69 31.5q36 0 69 -36.5t33 -70.5q0 -36 -28 -65t-66 -31zM238 1997q0 44 32.5 78t76.5 34q47 0 87 -39.5t40 -84.5q0 -41 -34.5 -76t-76.5 -35q-49 0 -86 39.5t-39 83.5z
M29 1810q0 45 33 79t76 34q47 0 87 -39.5t40 -85.5q0 -40 -35 -75t-76 -35q-48 0 -85.5 39t-39.5 83z" />
    </font>
</defs>
</svg>
