<?xml version="1.0" standalone="no"?>
<!DOCTYPE svg PUBLIC "-//W3C//DTD SVG 1.1//EN" "http://www.w3.org/Graphics/SVG/1.1/DTD/svg11.dtd" >
<svg xmlns="http://www.w3.org/2000/svg" xmlns:xlink="http://www.w3.org/1999/xlink" version="1.1">
<metadata>
Created by FontForge 20170731 at Sat Jan  5 20:43:47 2002
 By Aleksey,,,
Copyright 1997 Bigelow &#38; Holmes Inc. U.S. Pat. Des. 289,420. All rights reserved.
</metadata>
<defs>
<font id="LucidaGrande" horiz-adv-x="0" >
  <font-face 
    font-family="Lucida Grande"
    font-weight="400"
    font-stretch="normal"
    units-per-em="2048"
    panose-1="0 0 0 0 0 0 0 0 0 0"
    ascent="1638"
    descent="-410"
    x-height="1086"
    cap-height="1480"
    bbox="-1531 -791 3361 2066"
    underline-thickness="0"
    underline-position="0"
    unicode-range="U+0020-FFF0"
  />
<missing-glyph horiz-adv-x="1536" 
d="M256 0h1024v1280h-1024v-1280zM319 63v1154h898v-1154h-898z" />
    <glyph glyph-name="uniFB57" unicode="&#x67e;" horiz-adv-x="2412" arabic-form="final" 
d="M130 666l124 1q-6 -52 -6 -83q0 -226 132 -318.5t452 -92.5q500 0 900 255q228 145 297 263h173v-169l3 -95q0 -132 44.5 -181t164.5 -49h22v-197h-25q-240 0 -311 73t-71 318v36q-327 -249 -610.5 -350.5t-649.5 -101.5q-355 0 -506.5 109.5t-151.5 364.5q0 85 19 217z
M866 -308l111 111l111 -111l-111 -111zM521 -308l111 111l111 -111l-111 -111zM693 -564l111 111l111 -111l-111 -111z" />
    <glyph glyph-name="uniFB58" unicode="&#x67e;" horiz-adv-x="694" arabic-form="initial" 
d="M381 306q27 121 27 233q0 194 -46 349h190q31 -135 31 -290q0 -326 -176 -468q-162 -130 -382 -130h-50v197h57q194 0 349 109zM407 -407l111 111l111 -111l-111 -111zM61 -407l111 111l111 -111l-111 -111zM234 -662l111 111l111 -111l-111 -112z" />
    <glyph glyph-name="uniFB59" unicode="&#x67e;" horiz-adv-x="851" arabic-form="medial" 
d="M339 716h172v-234q0 -204 38 -244.5t231 -40.5h95v-197h-112q-230 0 -293.5 28t-106.5 150q-156 -178 -363 -178h-25v197h27q194 0 323 131q4 35 4 43l5 70q5 82 5 89v186zM487 -308l111 111l111 -111l-111 -111zM141 -308l111 111l111 -111l-111 -111zM314 -564l111 111
l111 -111l-111 -111z" />
    <glyph glyph-name="uniFB67" unicode="&#x679;" horiz-adv-x="2412" arabic-form="final" 
d="M130 666l124 1q-6 -52 -6 -83q0 -226 132 -318.5t452 -92.5q500 0 900 255q228 145 297 263h173v-169l3 -95q0 -132 44.5 -181t164.5 -49h22v-197h-25q-240 0 -311 73t-71 318v36q-327 -249 -610.5 -350.5t-649.5 -101.5q-355 0 -506.5 109.5t-151.5 364.5q0 85 19 217z
M730 839v74h135v407h74v-303q113 143 230 143q137 0 137 -172q0 -85 -47 -117t-172 -32h-357zM944 913h277q9 30 9 57q0 116 -77 116q-89 0 -209 -173z" />
    <glyph glyph-name="uniFB68" unicode="&#x679;" horiz-adv-x="694" arabic-form="initial" 
d="M381 306q27 121 27 233q0 194 -46 349h190q31 -135 31 -290q0 -326 -176 -468q-162 -130 -382 -130h-50v197h57q194 0 349 109zM95 1160v74h135v407h74v-303q112 142 230 142q137 0 137 -171q0 -86 -47 -117.5t-173 -31.5h-356zM309 1234h277q9 29 9 57q0 115 -77 115
q-89 0 -209 -172z" />
    <glyph glyph-name="uniFB69" unicode="&#x679;" horiz-adv-x="851" arabic-form="medial" 
d="M339 716h172v-234q0 -204 38 -244.5t231 -40.5h95v-197h-112q-230 0 -293.5 28t-106.5 150q-156 -178 -363 -178h-25v197h27q194 0 323 131q4 35 4 43l5 70q5 82 5 89v186zM150 987v74h135v407h74v-303q111 143 230 143q137 0 137 -173q0 -84 -47 -116t-173 -32h-356z
M364 1061h277q9 30 9 58q0 115 -77 115q-89 0 -209 -173z" />
    <glyph glyph-name="uniFB6B" unicode="&#x6a4;" horiz-adv-x="2674" arabic-form="final" 
d="M2108 143q-413 -168 -1225 -168q-435 0 -603.5 101t-168.5 360q0 94 20 230h124q-11 -109 -11 -149q0 -199 139 -271.5t521 -72.5q680 0 1077 71q-149 125 -149 270q0 147 127.5 260.5t292.5 113.5q122 0 193 -75t71 -205q0 -102 -40 -171t-169 -190q135 -50 358 -50h34
v-197h-114q-130 0 -228.5 29.5t-248.5 113.5zM2169 328q82 70 164 180q0 214 -130 214q-118 0 -221 -158q62 -142 187 -236zM1965 1258l111 111l111 -111l-111 -111zM2310 1258l111 111l111 -111l-111 -111zM2138 1514l111 111l111 -111l-111 -111z" />
    <glyph glyph-name="uniFB6C" unicode="&#x6a4;" horiz-adv-x="973" arabic-form="initial" 
d="M-24 0l-1 197h41q402 0 628 110q16 49 23 96q-57 -8 -115 -8q-380 0 -380 229q0 184 125.5 347.5t266.5 163.5q142 0 219.5 -130t77.5 -366q0 -341 -193.5 -490t-636.5 -149h-55zM684 598q0 154 -40.5 251.5t-104.5 97.5q-61 0 -112.5 -79t-78.5 -215q125 -61 263 -61
q24 0 73 6zM285 1394l111 111l111 -111l-111 -111zM631 1394l111 111l111 -111l-111 -111zM458 1649l111 112l111 -112l-111 -111z" />
    <glyph glyph-name="uniFB6D" unicode="&#x6a4;" horiz-adv-x="1098" arabic-form="medial" 
d="M-25 0v197h122q192 0 270 34q-161 142 -161 280q0 149 127 263t293 114q122 0 193 -75t71 -205q0 -102 -40 -171.5t-169 -189.5q175 -50 407 -50h34v-197h-114q-255 0 -492 120q-217 -120 -435 -120h-106zM543 328q81 68 164 180q0 214 -130 214q-118 0 -221 -158
q62 -142 187 -236zM339 1258l111 111l111 -111l-111 -111zM684 1258l111 111l111 -111l-111 -111zM512 1514l111 111l111 -111l-111 -111z" />
    <glyph glyph-name="uniFB7B" unicode="&#x686;" horiz-adv-x="1300" arabic-form="final" 
d="M1213 -541v-127q-244 -122 -440 -122q-300 0 -494 178t-194 453q0 308 194 521q113 124 352 212q-237 31 -337 31q-98 0 -220 -29v191q117 23 241 23q80 0 258 -17q349 -33 519 -33h139v-197h-153v-114q0 -155 32.5 -193.5t164.5 -38.5h50v-197h-55q-198 0 -269 81.5
t-71 310.5v151q-315 -53 -483 -222t-168 -434q0 -224 141 -352t389 -128q204 0 404 52zM729 0l111 111l111 -111l-111 -111zM383 0l111 111l111 -111l-111 -111zM556 -255l111 111l111 -111l-111 -111z" />
    <glyph glyph-name="uniFB7C" unicode="&#x686;" horiz-adv-x="1413" arabic-form="initial" 
d="M-25 0v197h228q291 0 474 94l191 97q30 16 92 46l-99 31q-436 140 -682 140q-58 0 -124 -14v199q63 12 117 12q226 0 561 -105l127 -41l60 -19q297 -94 467 -94v-198h-50q-152 0 -262 -30t-274 -116l-50 -27l-93 -51q-226 -121 -510 -121h-173zM632 -160l111 111
l111 -111l-111 -111zM286 -160l111 111l111 -111l-111 -111zM459 -416l111 111l111 -111l-111 -111z" />
    <glyph glyph-name="uniFB7D" unicode="&#x686;" horiz-adv-x="1480" arabic-form="medial" 
d="M-25 0v197h472q267 0 482 106q-486 351 -842 351l-29 -1v197q585 0 1335 -653h111v-197h-69q-71 0 -114.5 19t-130.5 88l-108 86q-13 11 -36 29q-165 -121 -335 -171.5t-416 -50.5h-320zM619 -160l111 111l111 -111l-111 -111zM273 -160l111 111l111 -111l-111 -111z
M446 -416l111 111l111 -111l-111 -111z" />
    <glyph glyph-name="uniFB89" unicode="&#x688;" horiz-adv-x="1206" arabic-form="final" 
d="M38 15v221q183 -63 359 -63q255 0 406 76l-1 79q0 132 -23 251l-101 507h173l100 -507q42 -210 97.5 -296t149.5 -86h32v-197h-44q-117 0 -177 28t-116 108q-101 -94 -204.5 -127.5t-291.5 -33.5q-158 0 -359 40zM404 1258v74h136v408h74v-304q112 143 230 143
q137 0 137 -172q0 -85 -47 -117t-173 -32h-357zM618 1332h278q8 30 8 58q0 115 -76 115q-90 0 -210 -173z" />
    <glyph glyph-name="uniFB8B" unicode="&#x698;" horiz-adv-x="1028" arabic-form="final" 
d="M371 568h240q88 -137 125 -212l17 -34q53 -107 157 -116l64 -6q33 -3 46 -3h33v-197h-34q-130 0 -247 89q-63 -227 -200.5 -418.5t-427.5 -460.5h-402l105 82q329 256 491 422t290 379q-71 198 -257 475zM12 950l111 111l111 -111l-111 -111zM358 950l111 111l111 -111
l-111 -111zM185 1205l111 111l111 -111l-111 -111z" />
    <glyph glyph-name="uniFB8D" unicode="&#x691;" horiz-adv-x="1028" arabic-form="final" 
d="M371 568h240q88 -137 125 -212l17 -34q53 -107 157 -116l64 -6q33 -3 46 -3h33v-197h-34q-130 0 -247 89q-63 -227 -200.5 -418.5t-427.5 -460.5h-402l105 82q329 256 491 422t290 379q-71 198 -257 475zM17 839v74h135v407h74v-303q113 143 230 143q137 0 137 -172
q0 -85 -47 -117t-173 -32h-356zM231 913h277q9 30 9 57q0 116 -77 116q-90 0 -209 -173z" />
    <glyph glyph-name="uniFB93" unicode="&#x6af;" horiz-adv-x="2356" arabic-form="final" 
d="M2280 1574l-956 -346v166l956 346v-166zM130 666l124 1q-5 -52 -5 -83q0 -229 133.5 -320t470.5 -91q592 0 825 96q3 53 3 79q0 205 -166 379l-191 201l-1 153l957 350v-170l-775 -266l479 -510q11 -12 90 -92l87 -89q105 -107 192 -107h28v-197h-38q-90 0 -177 57.5
t-209 197.5q-54 63 -62 71l-65 67q2 -33 2 -53q0 -200 -235 -282.5t-807 -82.5q-373 0 -526 107t-153 367q0 85 19 217z" />
    <glyph glyph-name="uniFB94" unicode="&#x6af;" horiz-adv-x="1118" arabic-form="initial" 
d="M123 932v157l956 346v-167l-753 -258q548 -347 548 -658q0 -150 -130 -241q-91 -64 -207 -87.5t-339 -23.5h-223v197h277q299 0 463 85q0 309 -592 650zM1079 1574l-956 -346v166l956 346v-166z" />
    <glyph glyph-name="uniFB95" unicode="&#x6af;" horiz-adv-x="1066" arabic-form="medial" 
d="M-25 0v197h91q176 0 322 76q4 51 4 76q0 204 -167 378l-191 201l-1 153l957 350v-170l-775 -266l479 -510q17 -18 90 -92l87 -89q105 -107 192 -107h28v-197h-38q-90 0 -176.5 57t-209.5 198q-54 63 -62 71l-65 67q2 -27 2 -42q0 -159 -127 -255t-337 -96h-103zM990 1574
l-956 -346v166l956 346v-166z" />
    <glyph glyph-name="uniFB9F" unicode="&#x6ba;" horiz-adv-x="1917" arabic-form="final" 
d="M1702 263q89 -66 199 -66h41v-197h-37q-127 0 -200 51q-19 -255 -122 -388q-118 -153 -330 -241t-461 -88q-344 0 -512.5 145.5t-168.5 443.5q0 182 55 373h155q-33 -154 -33 -275q0 -491 546 -491q419 0 683 256q16 140 16 243q0 296 -130 588h208q63 -173 91 -354z" />
    <glyph glyph-name="uniFBA4" unicode="&#x6c0;" horiz-adv-x="1110" arabic-form="isolated" 
d="M564 913q436 -270 436 -503q0 -178 -157.5 -306.5t-375.5 -128.5q-166 0 -261 81.5t-95 225.5q0 313 453 631zM524 691q-218 -226 -218 -369q0 -69 60.5 -109.5t163.5 -40.5q145 0 271 103q4 37 4 56q0 186 -281 360zM296 1073v104l313 89q-227 93 -227 209
q0 98 120 171.5t313 93.5v-123q-184 -15 -326 -124q131 -124 306 -175v-104z" />
    <glyph glyph-name="uniFBA5" unicode="&#x6c0;" horiz-adv-x="1078" arabic-form="final" 
d="M695 1036h173v-528l3 -101q0 -116 42 -163t145 -47h44v-197h-56q-192 0 -271.5 84t-79.5 287v35q-126 -205 -334 -205q-120 0 -196.5 51t-76.5 131q0 127 162 275t445 281v97zM695 776q-246 -115 -435 -327q67 -63 153 -63q151 0 272 166q3 29 4 36l3 57q3 62 3 66v65z
M464 1073v104l312 89q-226 93 -226 209q0 98 119.5 171.5t312.5 93.5v-123q-184 -15 -326 -124q132 -124 306 -175v-104z" />
    <glyph glyph-name="uniFBA8" unicode="&#x6c1;" horiz-adv-x="694" arabic-form="initial" 
d="M260 -148q-24 -68 -37 -102q-47 -131 -72 -229q111 -60 189 -81v-230q-156 44 -247.5 117t-91.5 155q0 95 75 251l45 92q1 4 12 27h127zM381 306q27 121 27 233q0 194 -46 349h190q31 -135 31 -290q0 -326 -176 -468q-162 -130 -382 -130h-50v197h57q194 0 349 109z" />
    <glyph glyph-name="uniFBA9" unicode="&#x6c1;" horiz-adv-x="1437" arabic-form="medial" 
d="M1462 197v-197h-48q-112 0 -179 38l-34 20q-81 47 -141 47q-94 0 -153 -92t-59 -238q0 -145 96 -268v-198q-234 83 -354 299t-120 556q-128 -102 -212 -133t-234 -31h-49v197h48q191 0 350.5 103t338.5 342q-91 -274 -91 -507q0 -267 129 -437q-28 115 -28 217
q0 170 85 278.5t219 108.5q74 0 144 -32l49 -23l36 -15q82 -35 177 -35h30z" />
    <glyph glyph-name="uniFBAF" unicode="&#x6d2;" horiz-adv-x="1672" arabic-form="final" 
d="M1696 197v-197h-464q-299 0 -445 -21.5t-262 -81.5q-189 -99 -284 -291q126 -75 496 -75h645v-197h-666q-333 0 -469 63t-136 218q0 198 208 362q277 219 828 219z" />
    <glyph glyph-name="uniFC08" unicode="&#xfc08;" horiz-adv-x="1122" arabic-form="isolated" 
d="M1097 841v-200q-125 50 -253 50q-240 0 -364 -202q21 -62 70 -133q7 -9 19 -27q48 3 74 3q128 0 225 -50v-155q-84 -22 -162 -22q-88 0 -197 40q-176 -26 -176 -251q0 -37 9 -180q11 -195 11 -293v-211h-173v245q0 155 -14 353q-6 71 -6 117q0 268 231 364
q-53 111 -53 174q0 170 157.5 297.5t367.5 127.5q124 0 234 -47zM673 -173l111 111l111 -111l-111 -111z" />
    <glyph glyph-name="uniFC0B" unicode="&#xfc0b;" horiz-adv-x="1300" arabic-form="isolated" 
d="M1207 395h-109q-374 0 -596.5 -147t-222.5 -394q0 -199 147 -322.5t385 -123.5q202 0 403 51v-127q-245 -122 -440 -122q-292 0 -490 175t-198 432q0 360 398 578h-378v197q133 33 283 159l68 58l61 51q19 16 89 77q121 106 191.5 127.5t297.5 21.5v-296h-148v110h-34
q-58 0 -112.5 -31.5t-158.5 -125.5l-27 -25q-86 -77 -150 -126h741v-197zM706 -74l111 111l111 -111l-111 -111zM671 1468l111 111l111 -111l-111 -111zM1016 1468l111 111l111 -111l-111 -111z" />
    <glyph glyph-name="uniFC0C" unicode="&#xfc0c;" horiz-adv-x="1300" arabic-form="isolated" 
d="M1207 395h-109q-374 0 -596.5 -147t-222.5 -394q0 -199 147 -322.5t385 -123.5q202 0 403 51v-127q-245 -122 -440 -122q-292 0 -490 175t-198 432q0 360 398 578h-378v197q133 33 283 159l68 58l61 51q19 16 89 77q121 106 191.5 127.5t297.5 21.5v-296h-148v110h-34
q-58 0 -112.5 -31.5t-158.5 -125.5l-27 -25q-86 -77 -150 -126h741v-197zM671 1468l111 111l111 -111l-111 -111zM1016 1468l111 111l111 -111l-111 -111z" />
    <glyph glyph-name="uniFC0E" unicode="&#xfc0e;" horiz-adv-x="1122" arabic-form="isolated" 
d="M1097 841v-200q-125 50 -253 50q-240 0 -364 -202q21 -62 70 -133q7 -9 19 -27q48 3 74 3q128 0 225 -50v-155q-84 -22 -162 -22q-88 0 -197 40q-176 -26 -176 -251q0 -37 9 -180q11 -195 11 -293v-211h-173v245q0 155 -14 353q-6 71 -6 117q0 268 231 364
q-53 111 -53 174q0 170 157.5 297.5t367.5 127.5q124 0 234 -47zM554 1271l111 111l111 -111l-111 -111zM900 1271l111 111l111 -111l-111 -111z" />
    <glyph glyph-name="uniFC48" unicode="&#xfc48;" horiz-adv-x="1124" arabic-form="isolated" 
d="M353 -790h-173v245q0 155 -15 353q-5 71 -5 117q0 268 231 364q-45 95 -45 174q0 139 84.5 246.5t237.5 161.5v215q216 -132 431 -148v-198l-48 -1q-242 0 -367 -57.5t-200 -202.5q38 -88 91 -150q45 3 70 3q126 0 223 -50v-155q-84 -22 -162 -22q-88 0 -198 40
q-175 -26 -175 -251q0 -37 8 -180q12 -195 12 -293v-211z" />
    <glyph glyph-name="uniFC4B" unicode="&#xfc4b;" horiz-adv-x="1300" arabic-form="isolated" 
d="M1207 395h-109q-374 0 -596.5 -147t-222.5 -394q0 -199 147 -322.5t385 -123.5q202 0 403 51v-127q-245 -122 -440 -122q-292 0 -490 175t-198 432q0 360 398 578h-378v197q133 33 283 159l68 58l61 51q19 16 89 77q121 106 191.5 127.5t297.5 21.5v-296h-148v110h-34
q-58 0 -112.5 -31.5t-158.5 -125.5l-27 -25q-86 -77 -150 -126h741v-197zM706 -74l111 111l111 -111l-111 -111zM831 1468l111 111l111 -111l-111 -111z" />
    <glyph glyph-name="uniFC4E" unicode="&#xfc4e;" horiz-adv-x="1122" arabic-form="isolated" 
d="M1097 841v-200q-125 50 -253 50q-240 0 -364 -202q21 -62 70 -133q7 -9 19 -27q48 3 74 3q128 0 225 -50v-155q-84 -22 -162 -22q-88 0 -197 40q-176 -26 -176 -251q0 -37 9 -180q11 -195 11 -293v-211h-173v245q0 155 -14 353q-6 71 -6 117q0 268 231 364
q-53 111 -53 174q0 170 157.5 297.5t367.5 127.5q124 0 234 -47zM750 1271l111 111l111 -111l-111 -111z" />
    <glyph glyph-name="uniFC58" unicode="&#xfc58;" horiz-adv-x="1122" arabic-form="isolated" 
d="M1097 841v-200q-125 50 -253 50q-240 0 -364 -202q21 -62 70 -133q7 -9 19 -27q48 3 74 3q128 0 225 -50v-155q-84 -22 -162 -22q-88 0 -197 40q-176 -26 -176 -251q0 -37 9 -180q11 -195 11 -293v-211h-173v245q0 155 -14 353q-6 71 -6 117q0 268 231 364
q-53 111 -53 174q0 170 157.5 297.5t367.5 127.5q124 0 234 -47zM554 -173l111 111l111 -111l-111 -111zM900 -173l111 111l111 -111l-111 -111z" />
    <glyph glyph-name="uniFC5E" unicode="&#xfc5e;" arabic-form="isolated" 
d="M741 1184v-168q0 -350 -212 -350q-112 0 -165 132q-58 -206 -208 -206q-86 0 -121 60.5t-35 208.5v225h111v-240q0 -90 14 -119.5t56 -29.5q53 0 93.5 77t40.5 179v182h111v-192q0 -172 110 -172q54 0 74 45t20 166v202h111zM790 1395v-107l-45 1q-28 0 -98 8
q-14 2 -42 4q-76 -75 -151 -102t-208 -27h-258v111q122 63 122 137q0 88 -88 88q-43 0 -109 -28v99q60 25 128 25q211 0 211 -157q0 -82 -90 -164h68l56 2q125 0 202 52q-178 61 -178 166q0 90 73.5 163.5t163.5 73.5q80 0 132.5 -52t52.5 -131q0 -62 -59 -156q71 -6 117 -6
zM559 1433q46 54 46 115q0 81 -76 81q-77 0 -121 -124q44 -36 112 -59q13 -4 39 -13z" />
    <glyph glyph-name="uniFC5F" unicode="&#xfc5f;" arabic-form="isolated" 
d="M740 1740v-169q0 -350 -211 -350q-113 0 -166 132q-58 -206 -208 -206q-86 0 -120.5 60.5t-34.5 208.5v225h111v-240q0 -90 13.5 -119.5t55.5 -29.5q54 0 94 77t40 179v182h111v-192q0 -172 110 -172q54 0 74 45t20 167v202h111zM740 1076l-740 -188v105l740 188v-105z
M740 854l-740 -188v105l740 187v-104z" />
    <glyph glyph-name="uniFC60" unicode="&#xfc60;" arabic-form="isolated" 
d="M740 1480v-168q0 -350 -211 -350q-113 0 -166 132q-58 -206 -208 -206q-86 0 -120.5 60.5t-34.5 208.5v225h111v-240v-48q0 -101 69 -101q54 0 94 77t40 179v182h111v-192q0 -172 110 -172q54 0 74 45t20 166v202h111zM740 1635l-740 -188v105l740 188v-105z" />
    <glyph glyph-name="uniFC61" unicode="&#xfc61;" arabic-form="isolated" 
d="M740 1184v-168q0 -350 -211 -350q-113 0 -166 132q-58 -206 -208 -206q-86 0 -120.5 60.5t-34.5 208.5v225h111v-240q0 -90 13.5 -119.5t55.5 -29.5q54 0 94 77t40 179v182h111v-192q0 -172 110 -172q54 0 74 44.5t20 166.5v202h111zM740 1370v-107q-132 0 -252 14
q-79 -77 -154 -103.5t-218 -26.5h-116v111h100q191 0 270 55q-178 58 -178 186q0 93 73 167t164 74q84 0 134.5 -53t50.5 -141q0 -76 -59 -169l69 -3zM441 1408q46 82 46 142q0 79 -72 79q-69 0 -126 -126q75 -71 152 -95z" />
    <glyph glyph-name="uniFC62" unicode="&#xfc62;" arabic-form="isolated" 
d="M740 1740v-169q0 -350 -211 -350q-113 0 -166 132q-58 -206 -208 -206q-86 0 -120.5 60.5t-34.5 208.5v225h111v-240q0 -90 13.5 -119.5t55.5 -29.5q54 0 94 77t40 179v182h111v-192q0 -172 110 -172q54 0 74 45t20 167v202h111zM740 1076l-740 -188v105l740 188v-105z
" />
    <glyph glyph-name="uniFC6D" unicode="&#xfc6d;" horiz-adv-x="2609" arabic-form="final" 
d="M2098 465q-137 -194 -343 -194l-44 1q21 -79 21 -145q0 -249 -90 -404q-101 -172 -333.5 -280.5t-499.5 -108.5q-672 0 -672 589q0 182 55 373h155q-32 -154 -32 -275q0 -490 518 -490q431 0 704 262q9 102 9 162q0 212 -85 460l-27 78h203q64 -24 124 -24
q121 0 212.5 66.5t124.5 180.5h173v-234q0 -204 38 -244.5t230 -40.5h96v-197h-112q-191 0 -255.5 16t-113.5 75q-56 68 -56 251v123zM891 950l111 111l111 -111l-111 -111zM2073 -407l111 111l111 -111l-111 -111z" />
    <glyph glyph-name="uniFC73" unicode="&#xfc73;" horiz-adv-x="2609" arabic-form="final" 
d="M2098 465q-137 -194 -343 -194l-44 1q21 -79 21 -145q0 -249 -90 -404q-101 -172 -333.5 -280.5t-499.5 -108.5q-672 0 -672 589q0 182 55 373h155q-32 -154 -32 -275q0 -490 518 -490q431 0 704 262q9 102 9 162q0 212 -85 460l-27 78h203q64 -24 124 -24
q121 0 212.5 66.5t124.5 180.5h173v-234q0 -204 38 -244.5t230 -40.5h96v-197h-112q-191 0 -255.5 16t-113.5 75q-56 68 -56 251v123zM891 950l111 111l111 -111l-111 -111zM1900 1098l111 111l111 -111l-111 -111zM2246 1098l111 111l111 -111l-111 -111z" />
    <glyph glyph-name="uniFC8D" unicode="&#xfc8d;" horiz-adv-x="2609" arabic-form="final" 
d="M2098 465q-137 -194 -343 -194l-44 1q21 -79 21 -145q0 -249 -90 -404q-101 -172 -333.5 -280.5t-499.5 -108.5q-672 0 -672 589q0 182 55 373h155q-32 -154 -32 -275q0 -490 518 -490q431 0 704 262q9 102 9 162q0 212 -85 460l-27 78h203q64 -24 124 -24
q121 0 212.5 66.5t124.5 180.5h173v-234q0 -204 38 -244.5t230 -40.5h96v-197h-112q-191 0 -255.5 16t-113.5 75q-56 68 -56 251v123zM891 950l111 111l111 -111l-111 -111zM2073 1098l111 111l111 -111l-111 -111z" />
    <glyph glyph-name="uniFC94" unicode="&#xfc94;" horiz-adv-x="2609" arabic-form="final" 
d="M2098 465q-137 -194 -343 -194l-44 1q21 -79 21 -145q0 -249 -90 -404q-101 -172 -333.5 -280.5t-499.5 -108.5q-672 0 -672 589q0 182 55 373h155q-32 -154 -32 -275q0 -490 518 -490q431 0 704 262q9 102 9 162q0 212 -85 460l-27 78h203q64 -24 124 -24
q121 0 212.5 66.5t124.5 180.5h173v-234q0 -204 38 -244.5t230 -40.5h96v-197h-112q-191 0 -255.5 16t-113.5 75q-56 68 -56 251v123zM891 950l111 111l111 -111l-111 -111zM1903 -407l111 111l111 -111l-111 -111zM2248 -407l111 111l111 -111l-111 -111z" />
    <glyph glyph-name="uniFC9F" unicode="&#xfc9f;" horiz-adv-x="1012" arabic-form="initial" 
d="M-25 0v197h32q53 0 169 46q31 12 68 27l41 16q-53 90 -53 192q0 201 154 342.5t374 141.5q116 0 227 -47v-204q-123 54 -233 54q-269 0 -384 -276q48 -111 169 -209q127 -8 220 -80v-200q-235 15 -356 122q-45 -15 -73 -28l-48 -22l-31 -12l-50 -22q-90 -38 -170 -38h-56
zM670 -407l111 111l111 -111l-111 -111z" />
    <glyph glyph-name="uniFCA1" unicode="&#xfca1;" horiz-adv-x="1197" arabic-form="initial" 
d="M1172 395h-52q-148 0 -327 -118q-50 -33 -76 -49l-52 -33q-19 -12 -78 -51q-135 -91 -233 -117.5t-295 -26.5h-84v197h171q233 0 454 123l95 53q7 4 42 22h-667v197q133 33 283 159l69 58l60 51q20 16 89 77q122 106 192.5 127.5t297.5 21.5v-296h-149v110h-34
q-57 0 -112.5 -32t-157.5 -125l-28 -25q-81 -74 -149 -126h741v-197zM567 1468l111 111l111 -111l-111 -111zM913 1468l111 111l111 -111l-111 -111zM600 -160l111 111l111 -111l-111 -111z" />
    <glyph glyph-name="uniFCA2" unicode="&#xfca2;" horiz-adv-x="1197" arabic-form="initial" 
d="M1172 395h-52q-148 0 -327 -118q-50 -33 -76 -49l-52 -33q-19 -12 -78 -51q-135 -91 -233 -117.5t-295 -26.5h-84v197h171q233 0 454 123l95 53q7 4 42 22h-667v197q133 33 283 159l69 58l60 51q20 16 89 77q122 106 192.5 127.5t297.5 21.5v-296h-149v110h-34
q-57 0 -112.5 -32t-157.5 -125l-28 -25q-81 -74 -149 -126h741v-197zM567 1468l111 111l111 -111l-111 -111zM913 1468l111 111l111 -111l-111 -111z" />
    <glyph glyph-name="uniFCA4" unicode="&#xfca4;" horiz-adv-x="1012" arabic-form="initial" 
d="M-25 0v197h32q53 0 169 46q31 12 68 27l41 16q-53 90 -53 192q0 201 154 342.5t374 141.5q116 0 227 -47v-204q-123 54 -233 54q-269 0 -384 -276q48 -111 169 -209q127 -8 220 -80v-200q-235 15 -356 122q-45 -15 -73 -28l-48 -22l-31 -12l-50 -22q-90 -38 -170 -38h-56
zM444 1345l111 111l111 -111l-111 -111zM790 1345l111 111l111 -111l-111 -111z" />
    <glyph glyph-name="uniFCC9" unicode="&#xfcc9;" horiz-adv-x="1184" arabic-form="initial" 
d="M-25 0v197h80q212 0 349.5 41t313.5 157h-654v197h23q250 0 336 119q73 101 73 463v566h173v-575q0 -252 -30.5 -363t-126.5 -210h647v-197h-37q-102 0 -183 -32.5t-214 -125.5l-71 -49q-171 -120 -276 -154t-303 -34h-100zM624 -160l111 111l111 -111l-111 -111z" />
    <glyph glyph-name="uniFCCA" unicode="&#xfcca;" horiz-adv-x="1184" arabic-form="initial" 
d="M-25 0v197h80q212 0 349.5 41t313.5 157h-654v197h23q250 0 336 119q73 101 73 463v566h173v-575q0 -252 -30.5 -363t-126.5 -210h647v-197h-37q-102 0 -183 -32.5t-214 -125.5l-71 -49q-171 -120 -276 -154t-303 -34h-100z" />
    <glyph glyph-name="uniFCCB" unicode="&#xfccb;" horiz-adv-x="1184" arabic-form="initial" 
d="M-25 0v197h80q212 0 349.5 41t313.5 157h-654v197h23q250 0 336 119q73 101 73 463v566h173v-575q0 -252 -30.5 -363t-126.5 -210h647v-197h-37q-102 0 -183 -32.5t-214 -125.5l-71 -49q-171 -120 -276 -154t-303 -34h-100zM77 975l111 111l111 -111l-111 -111z" />
    <glyph glyph-name="uniFCCC" unicode="&#xfccc;" horiz-adv-x="771" arabic-form="initial" 
d="M-25 0v197h38q100 0 201 49l32 16q2 1 43 23q33 18 87 41q-60 170 -78 318.5t-18 489.5v544h173v-679q0 -446 98 -657q119 -49 220 -143v-199q-120 10 -183.5 43t-144.5 126q-46 -22 -71 -37l-40 -23l-35 -20l-42 -26q-103 -63 -233 -63h-47z" />
    <glyph glyph-name="uniFCD1" unicode="&#xfcd1;" horiz-adv-x="1039" arabic-form="initial" 
d="M522 285q145 -40 230 -112v-173q-138 0 -200.5 21.5t-142.5 98.5q-28 -11 -33 -13l-65 -29q-23 -10 -48 -20l-31 -12q-117 -46 -211 -46h-46v197h31q79 0 298 86q-43 79 -43 165q0 308 321 423v215q216 -132 432 -148v-198l-49 -1q-241 0 -366.5 -57.5t-200.5 -202.5
q49 -111 124 -194z" />
    <glyph glyph-name="uniFCD2" unicode="&#xfcd2;" horiz-adv-x="1197" arabic-form="initial" 
d="M1172 395h-51q-149 0 -327 -118q-51 -33 -77 -49l-52 -33q-19 -12 -78 -51q-135 -91 -232.5 -117.5t-295.5 -26.5h-84v197h171q233 0 454 123l95 53q8 4 42 22h-666v197q132 32 282 159l69 58l60 51q20 16 90 77q121 106 191.5 127.5t297.5 21.5v-296h-148v110h-34
q-59 0 -113 -31.5t-158 -125.5l-27 -25q-84 -76 -150 -126h741v-197zM600 -160l111 111l111 -111l-111 -111zM805 1468l111 111l111 -111l-111 -111z" />
    <glyph glyph-name="uniFCD5" unicode="&#xfcd5;" horiz-adv-x="1012" arabic-form="initial" 
d="M-25 0v197h32q53 0 169 46q31 12 68 27l41 16q-53 90 -53 192q0 201 154 342.5t374 141.5q116 0 227 -47v-204q-123 54 -233 54q-269 0 -384 -276q48 -111 169 -209q127 -8 220 -80v-200q-235 15 -356 122q-45 -15 -73 -28l-48 -22l-31 -12l-50 -22q-90 -38 -170 -38h-56
zM639 1345l111 111l112 -111l-112 -111z" />
    <glyph glyph-name="uniFCDD" unicode="&#xfcdd;" horiz-adv-x="1012" arabic-form="initial" 
d="M-25 0v197h32q53 0 169 46q31 12 68 27l41 16q-53 90 -53 192q0 201 154 342.5t374 141.5q116 0 227 -47v-204q-123 54 -233 54q-269 0 -384 -276q48 -111 169 -209q127 -8 220 -80v-200q-235 15 -356 122q-45 -15 -73 -28l-48 -22l-31 -12l-50 -22q-90 -38 -170 -38h-56
zM444 -407l111 111l111 -111l-111 -111zM790 -407l111 111l111 -111l-111 -111z" />
    <glyph glyph-name="uniFD88" unicode="&#xfd88;" horiz-adv-x="1212" arabic-form="initial" 
d="M-25 0v197h216q185 0 277 21.5t223 94.5l-623 64v192q193 266 567 338q-46 116 -46 304v529h173v-529q0 -193 44 -306q140 -51 199 -136v-180q-189 45 -301 182q-257 -34 -455 -219l914 -95v-197q-60 9 -101 9q-135 0 -284 -74l-86 -42l-79 -40q-146 -73 -225 -93
t-220 -20h-193z" />
    <glyph glyph-name="uniFE82" unicode="&#x622;" horiz-adv-x="575" arabic-form="final" 
d="M599 197v-197h-65q-219 0 -285 106q-33 54 -42 126.5t-9 287.5v837h172v-799l1 -105q0 -150 39.5 -203t152.5 -53h36zM-24 1457v89q99 140 168 140q32 0 91 -19l48 -16l42 -13q80 -24 111 -24q46 0 156 87v-89q-99 -139 -169 -139q-30 0 -90 19l-48 15l-42 13
q-80 25 -111 25q-46 0 -156 -88z" />
    <glyph glyph-name="uniFE84" unicode="&#x623;" horiz-adv-x="575" arabic-form="final" 
d="M599 197v-197h-64q-220 0 -285 106q-34 54 -43 126.5t-9 287.5v788h173v-750v-105q0 -150 40 -203t152 -53h36zM506 1723v-108q-122 32 -195 32q-21 0 -65 -5q40 -103 136 -174h143v-99h-481v99h171q-77 88 -77 153q0 119 217 119q57 0 151 -17z" />
    <glyph glyph-name="uniFE86" unicode="&#x624;" horiz-adv-x="963" arabic-form="final" 
d="M631 0l-77 2q-410 0 -410 227q0 184 125.5 347.5t266.5 163.5q139 0 219.5 -132.5t80.5 -361.5l-1 -49h153v-197h-179q-111 -247 -225 -395t-380 -395h-402l105 82q289 225 430 360.5t268 310.5zM663 197q0 161 -41 258t-108 97q-136 0 -194 -294q125 -61 343 -61z
M228 1012v104l312 88q-226 93 -226 210q0 98 120 171t313 93v-123q-185 -15 -326 -123q131 -125 305 -175v-104z" />
    <glyph glyph-name="uniFE88" unicode="&#x625;" horiz-adv-x="575" arabic-form="final" 
d="M599 197v-197h-64q-220 0 -285 106q-52 84 -52 414v1158h173v-1120v-105q0 -150 40 -203t153 -53h35zM24 -790v104l312 88q-226 93 -226 210q0 98 120 171t313 93v-123q-185 -15 -326 -123q131 -125 305 -175v-104z" />
    <glyph glyph-name="uniFE8A" unicode="&#x626;" horiz-adv-x="1930" arabic-form="final" 
d="M203 247h123q-61 -225 -61 -408q0 -233 134 -332t447 -99q598 0 819 168l40 42h-104q-271 0 -370 44t-99 164q0 164 164 274t408 110q49 0 87 -3l85 -8q21 -2 51 -2h28v-197h-35q-21 0 -74 7q-131 18 -215 18q-133 0 -215.5 -38t-82.5 -100q0 -46 58.5 -65t198.5 -19h71
q140 0 193 -27.5t53 -98.5q0 -191 -317 -329t-756 -138q-373 0 -548 128t-175 401q0 201 92 508zM69 518v104l312 88q-226 93 -226 210q0 98 120 171t313 93v-123q-185 -15 -326 -123q131 -125 305 -175v-104z" />
    <glyph glyph-name="uniFE8B" unicode="&#x626;" horiz-adv-x="694" arabic-form="initial" 
d="M381 306q27 121 27 233q0 194 -46 349h190q31 -135 31 -290q0 -326 -176 -468q-162 -130 -382 -130h-50v197h57q194 0 349 109zM123 1073v104l312 89q-226 92 -226 209q0 98 119.5 171.5t312.5 93.5v-123q-184 -15 -326 -124q132 -124 306 -175v-104z" />
    <glyph glyph-name="uniFE8C" unicode="&#x626;" horiz-adv-x="851" arabic-form="medial" 
d="M339 716h172v-234q0 -204 38 -244.5t231 -40.5h95v-197h-112q-230 0 -293.5 28t-106.5 150q-156 -178 -363 -178h-25v197h27q194 0 323 131q4 35 4 43l5 70q5 82 5 89v186zM142 962v104l312 89q-226 93 -226 209q0 98 119.5 171.5t313.5 93.5v-123q-185 -15 -327 -124
q133 -125 306 -175v-104z" />
    <glyph glyph-name="uniFE8E" unicode="&#x627;" horiz-adv-x="575" arabic-form="final" 
d="M599 197v-197h-64q-220 0 -285 106q-52 84 -52 414v1158h173v-1120v-105q0 -150 40 -203t153 -53h35z" />
    <glyph glyph-name="uniFE90" unicode="&#x628;" horiz-adv-x="2412" arabic-form="final" 
d="M130 666l124 1q-6 -52 -6 -83q0 -226 132 -318.5t452 -92.5q500 0 900 255q228 145 297 263h173v-169l3 -95q0 -132 44.5 -181t164.5 -49h22v-197h-25q-240 0 -311 73t-71 318v36q-327 -249 -610.5 -350.5t-649.5 -101.5q-355 0 -506.5 109.5t-151.5 364.5q0 85 19 217z
M692 -407l111 111l111 -111l-111 -111z" />
    <glyph glyph-name="uniFE91" unicode="&#x628;" horiz-adv-x="694" arabic-form="initial" 
d="M381 306q27 121 27 233q0 194 -46 349h190q31 -135 31 -290q0 -326 -176 -468q-162 -130 -382 -130h-50v197h57q194 0 349 109zM43 -407l111 111l111 -111l-111 -111z" />
    <glyph glyph-name="uniFE92" unicode="&#x628;" horiz-adv-x="851" arabic-form="medial" 
d="M339 716h172v-234q0 -204 38 -244.5t231 -40.5h95v-197h-112q-230 0 -293.5 28t-106.5 150q-156 -178 -363 -178h-25v197h27q194 0 323 131q4 35 4 43l5 70q5 82 5 89v186zM314 -407l111 111l111 -111l-111 -111z" />
    <glyph glyph-name="uniFE94" unicode="&#x629;" horiz-adv-x="1078" arabic-form="final" 
d="M695 1086h173v-578l3 -101q0 -116 42 -163t145 -47h44v-197h-56q-192 0 -271.5 84t-79.5 287v35q-126 -205 -334 -205q-120 0 -196.5 51t-76.5 131q0 127 162 275t445 281v147zM695 776q-246 -115 -435 -327q67 -63 153 -63q151 0 272 166q3 29 4 36l3 57q3 62 3 66v65z
M498 1468l111 111l111 -111l-111 -111zM843 1468l111 111l111 -111l-111 -111z" />
    <glyph glyph-name="uniFE96" unicode="&#x62a;" horiz-adv-x="2412" arabic-form="final" 
d="M130 666l124 1q-6 -52 -6 -83q0 -226 132 -318.5t452 -92.5q500 0 900 255q228 145 297 263h173v-169l3 -95q0 -132 44.5 -181t164.5 -49h22v-197h-25q-240 0 -311 73t-71 318v36q-327 -249 -610.5 -350.5t-649.5 -101.5q-355 0 -506.5 109.5t-151.5 364.5q0 85 19 217z
M716 950l111 111l111 -111l-111 -111zM1061 950l112 111l111 -111l-111 -111z" />
    <glyph glyph-name="uniFE97" unicode="&#x62a;" horiz-adv-x="694" arabic-form="initial" 
d="M381 306q27 121 27 233q0 194 -46 349h190q31 -135 31 -290q0 -326 -176 -468q-162 -130 -382 -130h-50v197h57q194 0 349 109zM30 1197l111 111l111 -111l-111 -111zM376 1197l111 111l111 -111l-111 -111z" />
    <glyph glyph-name="uniFE98" unicode="&#x62a;" horiz-adv-x="851" arabic-form="medial" 
d="M339 716h172v-234q0 -204 38 -244.5t231 -40.5h95v-197h-112q-230 0 -293.5 28t-106.5 150q-156 -178 -363 -178h-25v197h27q194 0 323 131q4 35 4 43l5 70q5 82 5 89v186zM141 1098l111 111l111 -111l-111 -111zM487 1098l111 111l111 -111l-111 -111z" />
    <glyph glyph-name="uniFE9A" unicode="&#x62b;" horiz-adv-x="2412" arabic-form="final" 
d="M130 666l124 1q-6 -52 -6 -83q0 -226 132 -318.5t452 -92.5q500 0 900 255q228 145 297 263h173v-169l3 -95q0 -132 44.5 -181t164.5 -49h22v-197h-25q-240 0 -311 73t-71 318v36q-327 -249 -610.5 -350.5t-649.5 -101.5q-355 0 -506.5 109.5t-151.5 364.5q0 85 19 217z
M716 950l111 111l111 -111l-111 -111zM1061 950l112 111l111 -111l-111 -111zM889 1205l111 111l111 -111l-111 -111z" />
    <glyph glyph-name="uniFE9B" unicode="&#x62b;" horiz-adv-x="694" arabic-form="initial" 
d="M381 306q27 121 27 233q0 194 -46 349h190q31 -135 31 -290q0 -326 -176 -468q-162 -130 -382 -130h-50v197h57q194 0 349 109zM30 1197l111 111l111 -111l-111 -111zM376 1197l111 111l111 -111l-111 -111zM203 1452l111 111l111 -111l-111 -111z" />
    <glyph glyph-name="uniFE9C" unicode="&#x62b;" horiz-adv-x="851" arabic-form="medial" 
d="M339 716h172v-234q0 -204 38 -244.5t231 -40.5h95v-197h-112q-230 0 -293.5 28t-106.5 150q-156 -178 -363 -178h-25v197h27q194 0 323 131q4 35 4 43l5 70q5 82 5 89v186zM141 1197l111 111l111 -111l-111 -111zM487 1197l111 111l111 -111l-111 -111zM314 1452l111 111
l111 -111l-111 -111z" />
    <glyph glyph-name="uniFE9E" unicode="&#x62c;" horiz-adv-x="1300" arabic-form="final" 
d="M1213 -541v-127q-244 -122 -440 -122q-300 0 -494 178t-194 453q0 308 194 521q113 124 352 212q-237 31 -337 31q-98 0 -220 -29v191q117 23 241 23q80 0 258 -17q349 -33 519 -33h139v-197h-153v-114q0 -155 32.5 -193.5t164.5 -38.5h50v-197h-55q-198 0 -269 81.5
t-71 310.5v151q-315 -53 -483 -222t-168 -434q0 -224 141 -352t389 -128q204 0 404 52zM619 0l111 111l111 -111l-111 -111z" />
    <glyph glyph-name="uniFE9F" unicode="&#x62c;" horiz-adv-x="1413" arabic-form="initial" 
d="M-25 0v197h228q291 0 474 94l191 97q30 16 92 46l-99 31q-436 140 -682 140q-58 0 -124 -14v199q63 12 117 12q226 0 561 -105l127 -41l60 -19q297 -94 467 -94v-198h-50q-152 0 -262 -30t-274 -116l-50 -27l-93 -51q-226 -121 -510 -121h-173zM521 -160l111 111
l111 -111l-111 -111z" />
    <glyph glyph-name="uniFEA0" unicode="&#x62c;" horiz-adv-x="1480" arabic-form="medial" 
d="M-25 0v197h472q267 0 482 106q-486 351 -842 351l-29 -1v197q585 0 1335 -653h111v-197h-69q-71 0 -114.5 19t-130.5 88l-108 86q-13 11 -36 29q-165 -121 -335 -171.5t-416 -50.5h-320zM559 -160l111 111l112 -111l-112 -111z" />
    <glyph glyph-name="uniFEA2" unicode="&#x62d;" horiz-adv-x="1300" arabic-form="final" 
d="M1213 -541v-127q-244 -122 -440 -122q-300 0 -494 178t-194 453q0 308 194 521q113 124 352 212q-237 31 -337 31q-98 0 -220 -29v191q117 23 241 23q80 0 258 -17q349 -33 519 -33h139v-197h-153v-114q0 -155 32.5 -193.5t164.5 -38.5h50v-197h-55q-198 0 -269 81.5
t-71 310.5v151q-315 -53 -483 -222t-168 -434q0 -224 141 -352t389 -128q204 0 404 52z" />
    <glyph glyph-name="uniFEA3" unicode="&#x62d;" horiz-adv-x="1413" arabic-form="initial" 
d="M-25 0v197h228q291 0 474 94l191 97q30 16 92 46l-99 31q-436 140 -682 140q-58 0 -124 -14v199q63 12 117 12q226 0 561 -105l127 -41l60 -19q297 -94 467 -94v-198h-50q-152 0 -262 -30t-274 -116l-50 -27l-93 -51q-226 -121 -510 -121h-173z" />
    <glyph glyph-name="uniFEA4" unicode="&#x62d;" horiz-adv-x="1480" arabic-form="medial" 
d="M-25 0v197h472q267 0 482 106q-486 351 -842 351l-29 -1v197q585 0 1335 -653h111v-197h-69q-71 0 -114.5 19t-130.5 88l-108 86q-13 11 -36 29q-165 -121 -335 -171.5t-416 -50.5h-320z" />
    <glyph glyph-name="uniFEA6" unicode="&#x62e;" horiz-adv-x="1300" arabic-form="final" 
d="M1214 -541v-127q-245 -122 -440 -122q-300 0 -494 178t-194 453q0 308 194 521q112 124 351 212q-236 31 -337 31q-98 0 -220 -29v191q118 23 242 23q79 0 257 -17q350 -33 520 -33h139v-197h-154v-114q0 -155 33 -193.5t165 -38.5h49v-197h-54q-199 0 -270 81.5
t-71 310.5v151q-314 -53 -482 -222.5t-168 -433.5q0 -224 141 -352t388 -128q204 0 405 52zM619 1123l111 111l111 -111l-111 -111z" />
    <glyph glyph-name="uniFEA7" unicode="&#x62e;" horiz-adv-x="1413" arabic-form="initial" 
d="M-25 0v197h228q291 0 474 94l191 97q30 16 92 46l-99 31q-436 140 -682 140q-58 0 -124 -14v199q63 12 117 12q226 0 561 -105l127 -41l60 -19q297 -94 467 -94v-198h-50q-152 0 -262 -30t-274 -116l-50 -27l-93 -51q-226 -121 -510 -121h-173zM521 1123l111 111
l111 -111l-111 -111z" />
    <glyph glyph-name="uniFEA8" unicode="&#x62e;" horiz-adv-x="1480" arabic-form="medial" 
d="M-25 0v197h472q267 0 482 106q-486 351 -842 351l-29 -1v197q585 0 1335 -653h111v-197h-69q-71 0 -114.5 19t-130.5 88l-108 86q-13 11 -36 29q-165 -121 -335 -171.5t-416 -50.5h-320zM559 1123l111 111l112 -111l-112 -111z" />
    <glyph glyph-name="uniFEAA" unicode="&#x62f;" horiz-adv-x="1206" arabic-form="final" 
d="M38 15v221q183 -63 359 -63q255 0 406 76l-1 79q0 132 -23 251l-101 507h173l100 -507q42 -210 97.5 -296t149.5 -86h32v-197h-44q-117 0 -177 28t-116 108q-101 -94 -204.5 -127.5t-291.5 -33.5q-158 0 -359 40z" />
    <glyph glyph-name="uniFEAC" unicode="&#x630;" horiz-adv-x="1206" arabic-form="final" 
d="M38 15v221q183 -63 359 -63q255 0 406 76l-1 79q0 132 -23 251l-101 507h173l100 -507q42 -210 97.5 -296t149.5 -86h32v-197h-44q-117 0 -177 28t-116 108q-101 -94 -204.5 -127.5t-291.5 -33.5q-158 0 -359 40zM541 1468l111 111l111 -111l-111 -111z" />
    <glyph glyph-name="uniFEAE" unicode="&#x631;" horiz-adv-x="1028" arabic-form="final" 
d="M371 568h240q88 -137 125 -212l17 -34q53 -107 157 -116l64 -6q33 -3 46 -3h33v-197h-34q-130 0 -247 89q-63 -227 -200.5 -418.5t-427.5 -460.5h-402l105 82q329 256 491 422t290 379q-71 198 -257 475z" />
    <glyph glyph-name="uniFEB0" unicode="&#x632;" horiz-adv-x="1028" arabic-form="final" 
d="M371 568h240q88 -137 125 -212l17 -34q53 -107 157 -116l64 -6q33 -3 46 -3h33v-197h-34q-130 0 -247 89q-63 -227 -200.5 -418.5t-427.5 -460.5h-402l105 82q329 256 491 422t290 379q-71 198 -257 475zM185 1098l111 111l111 -111l-111 -111z" />
    <glyph glyph-name="uniFEB2" unicode="&#x633;" horiz-adv-x="3326" arabic-form="final" 
d="M1699 282q107 -85 198 -85q98 0 237 131q5 35 5 43l4 70q5 82 5 89v186h173v-234q0 -172 37 -234.5t140 -62.5q148 0 303 143q4 35 4 43l5 70q4 78 4 89v309h173v-357q0 -204 38 -244.5t231 -40.5h95v-197h-112q-230 0 -293.5 28t-106.5 150q-139 -190 -364 -190
q-237 0 -302 190q-131 -178 -285 -178q-75 0 -183 51q-19 -255 -122 -388q-117 -153 -329.5 -241t-461.5 -88q-343 0 -512 145.5t-169 443.5q0 182 55 373h155q-32 -154 -32 -275q0 -491 545 -491q419 0 683 256q16 140 16 243q0 296 -130 588h208q62 -170 88 -335z" />
    <glyph glyph-name="uniFEB3" unicode="&#x633;" horiz-adv-x="1950" arabic-form="initial" 
d="M989 336q16 113 16 185v195h173v-275q0 -244 219 -244q155 0 265 120q11 104 11 164q0 205 -80 457h192q55 -213 55 -418q0 -236 -129.5 -378t-345.5 -142q-218 0 -325 183q-146 -195 -377 -195q-234 0 -300 190q-155 -178 -362 -178h-26v197h28q193 0 322 131q5 35 5 43
l4 70q5 82 5 89v186h173v-234q0 -173 37 -235t140 -62q85 0 168.5 42t131.5 109z" />
    <glyph glyph-name="uniFEB4" unicode="&#x633;" horiz-adv-x="2184" arabic-form="medial" 
d="M363 178q-155 -178 -362 -178h-26v197h28q193 0 322 131q5 35 5 43l4 70q5 82 5 89v186h173v-234q0 -172 37 -234.5t140 -62.5q148 0 303 143q4 35 4 43l5 70q4 78 4 89v186h173v-234q0 -172 37 -234.5t140 -62.5q149 0 303 143q4 35 5 43l4 70q5 82 5 89v309h172v-357
q0 -204 38 -244.5t231 -40.5h95v-197h-111q-231 0 -294.5 28t-106.5 150q-139 -190 -364 -190q-237 0 -302 190q-139 -190 -364 -190q-237 0 -303 190z" />
    <glyph glyph-name="uniFEB6" unicode="&#x634;" horiz-adv-x="3326" arabic-form="final" 
d="M1699 282q107 -85 198 -85q98 0 237 131q5 35 5 43l4 70q5 82 5 89v186h173v-234q0 -172 37 -234.5t140 -62.5q148 0 303 143q4 35 4 43l5 70q4 78 4 89v309h173v-357q0 -204 38 -244.5t231 -40.5h95v-197h-112q-230 0 -293.5 28t-106.5 150q-139 -190 -364 -190
q-237 0 -302 190q-131 -178 -285 -178q-75 0 -183 51q-19 -255 -122 -388q-117 -153 -329.5 -241t-461.5 -88q-343 0 -512 145.5t-169 443.5q0 182 55 373h155q-32 -154 -32 -275q0 -491 545 -491q419 0 683 256q16 140 16 243q0 296 -130 588h208q62 -170 88 -335z
M1951 1098l111 111l111 -111l-111 -111zM2296 1098l111 111l111 -111l-111 -111zM2124 1353l111 111l111 -111l-111 -111z" />
    <glyph glyph-name="uniFEB7" unicode="&#x634;" horiz-adv-x="1950" arabic-form="initial" 
d="M989 336q16 113 16 185v195h173v-275q0 -244 219 -244q155 0 265 120q11 104 11 164q0 205 -80 457h192q55 -213 55 -418q0 -236 -129.5 -378t-345.5 -142q-218 0 -325 183q-146 -195 -377 -195q-234 0 -300 190q-155 -178 -362 -178h-26v197h28q193 0 322 131q5 35 5 43
l4 70q5 82 5 89v186h173v-234q0 -173 37 -235t140 -62q85 0 168.5 42t131.5 109zM808 1098l111 111l111 -111l-111 -111zM1154 1098l111 111l111 -111l-111 -111zM981 1353l111 111l111 -111l-111 -111z" />
    <glyph glyph-name="uniFEB8" unicode="&#x634;" horiz-adv-x="2184" arabic-form="medial" 
d="M363 178q-155 -178 -362 -178h-26v197h28q193 0 322 131q5 35 5 43l4 70q5 82 5 89v186h173v-234q0 -172 37 -234.5t140 -62.5q148 0 303 143q4 35 4 43l5 70q4 78 4 89v186h173v-234q0 -172 37 -234.5t140 -62.5q149 0 303 143q4 35 5 43l4 70q5 82 5 89v309h172v-357
q0 -204 38 -244.5t231 -40.5h95v-197h-111q-231 0 -294.5 28t-106.5 150q-139 -190 -364 -190q-237 0 -302 190q-139 -190 -364 -190q-237 0 -303 190zM808 1098l111 111l111 -111l-111 -111zM1154 1098l111 111l111 -111l-111 -111zM981 1353l111 111l111 -111l-111 -111z
" />
    <glyph glyph-name="uniFEBA" unicode="&#x635;" horiz-adv-x="3336" arabic-form="final" 
d="M1698 282q114 -52 218 -78q261 323 516 510t434 187q132 0 221 -125.5t89 -309.5q0 -125 -52 -207q77 -62 201 -62h36v-197h-42q-131 0 -201 30.5t-124 112.5q-262 -168 -729 -168q-340 0 -561 76q-19 -255 -121 -388q-118 -153 -330 -241t-461 -88q-344 0 -512.5 145.5
t-168.5 443.5q0 182 55 373h155q-33 -154 -33 -275q0 -491 545 -491q420 0 683 256q17 140 17 243q0 296 -131 588h208q63 -170 88 -335zM2093 179q100 -7 145 -7q458 0 765 144v30q0 154 -52.5 249.5t-136.5 95.5q-127 0 -321.5 -138.5t-399.5 -373.5z" />
    <glyph glyph-name="uniFEBB" unicode="&#x635;" horiz-adv-x="2078" arabic-form="initial" 
d="M885 179q100 -7 145 -7q458 0 764 144v30q0 154 -52 249.5t-136 95.5q-127 0 -322 -138.5t-399 -373.5zM416 203q-178 -203 -415 -203h-26v197h28q193 0 322 131q5 35 5 43l4 70q5 82 5 89v186h173v-234q0 -119 38.5 -174t157.5 -104q260 322 515 509.5t435 187.5
q133 0 221 -126t88 -317q0 -268 -292 -380q-105 -41 -298.5 -72t-338.5 -31q-229 0 -363.5 49.5t-258.5 178.5z" />
    <glyph glyph-name="uniFEBC" unicode="&#x635;" horiz-adv-x="2128" arabic-form="medial" 
d="M885 179q100 -7 145 -7q458 0 764 144v30q0 154 -52 249.5t-136 95.5q-127 0 -322 -138.5t-399 -373.5zM416 203q-178 -203 -415 -203h-26v197h28q193 0 322 131q5 35 5 43l4 70q5 82 5 89v186h173v-234q0 -119 38.5 -174t157.5 -104q260 322 515 509.5t435 187.5
q131 0 220.5 -125.5t89.5 -309.5q0 -125 -53 -207q77 -62 201 -62h36v-197h-42q-131 0 -200.5 30.5t-124.5 112.5q-261 -168 -736 -168q-239 0 -373.5 48.5t-259.5 179.5z" />
    <glyph glyph-name="uniFEBE" unicode="&#x636;" horiz-adv-x="3336" arabic-form="final" 
d="M1698 282q114 -52 218 -78q261 323 516 510t434 187q132 0 221 -125.5t89 -309.5q0 -125 -52 -207q77 -62 201 -62h36v-197h-42q-131 0 -201 30.5t-124 112.5q-262 -168 -729 -168q-340 0 -561 76q-19 -255 -121 -388q-118 -153 -330 -241t-461 -88q-344 0 -512.5 145.5
t-168.5 443.5q0 182 55 373h155q-33 -154 -33 -275q0 -491 545 -491q420 0 683 256q17 140 17 243q0 296 -131 588h208q63 -170 88 -335zM2093 179q100 -7 145 -7q458 0 765 144v30q0 154 -52.5 249.5t-136.5 95.5q-127 0 -321.5 -138.5t-399.5 -373.5zM2769 1283l111 111
l111 -111l-111 -111z" />
    <glyph glyph-name="uniFEBF" unicode="&#x636;" horiz-adv-x="2078" arabic-form="initial" 
d="M416 203q-178 -203 -415 -203h-26v197h28q193 0 322 131q5 35 5 43l4 70q5 82 5 89v186h173v-234q0 -119 38.5 -174t157.5 -104q260 322 515 509.5t435 187.5q133 0 221 -126t88 -317q0 -268 -292 -380q-105 -41 -298.5 -72t-338.5 -31q-229 0 -363.5 49.5t-258.5 178.5z
M885 179q100 -7 145 -7q458 0 764 144v30q0 154 -52 249.5t-136 95.5q-127 0 -322 -138.5t-399 -373.5zM1561 1283l111 111l111 -111l-111 -111z" />
    <glyph glyph-name="uniFEC0" unicode="&#x636;" horiz-adv-x="2128" arabic-form="medial" 
d="M416 203q-178 -203 -415 -203h-26v197h28q193 0 322 131q5 35 5 43l4 70q5 82 5 89v186h173v-234q0 -119 38.5 -174t157.5 -104q260 322 515 509.5t435 187.5q131 0 220.5 -125.5t89.5 -309.5q0 -125 -53 -207q77 -62 201 -62h36v-197h-42q-131 0 -200.5 30.5
t-124.5 112.5q-261 -168 -736 -168q-239 0 -373.5 48.5t-259.5 179.5zM885 179q100 -7 145 -7q458 0 764 144v30q0 154 -52 249.5t-136 95.5q-127 0 -322 -138.5t-399 -373.5zM1561 1278l111 111l111 -111l-111 -111z" />
    <glyph glyph-name="uniFEC2" unicode="&#x637;" horiz-adv-x="1687" arabic-form="final" 
d="M465 1678h173v-615q0 -335 -65 -557q396 382 652 382q124 0 213 -126t89 -300q0 -121 -53 -203q78 -62 202 -62h36v-197h-42q-132 0 -201.5 30.5t-124.5 112.5q-152 -94 -345.5 -131t-532.5 -37q-248 0 -466 34v198q142 -32 279 -32q101 151 143.5 331.5t42.5 459.5v712z
M440 173q644 0 913 143l1 29q0 148 -54.5 241t-140.5 93q-128 0 -327.5 -141t-391.5 -365z" />
    <glyph glyph-name="uniFEC3" unicode="&#x637;" horiz-adv-x="1524" arabic-form="initial" 
d="M-25 0v197h201q175 241 175 769v712h173v-615q0 -335 -66 -557q397 382 653 382q126 0 213.5 -127t87.5 -311q0 -450 -908 -450h-529zM1239 316v29q0 147 -54.5 240.5t-139.5 93.5q-124 0 -335.5 -147t-357.5 -335h176q247 0 412 28t299 91z" />
    <glyph glyph-name="uniFEC4" unicode="&#x637;" horiz-adv-x="1573" arabic-form="medial" 
d="M1360 259q78 -62 201 -62h36v-197h-42q-131 0 -200.5 30.5t-124.5 112.5q-229 -143 -725 -143h-530v197h201q175 241 175 769v712h173v-615q0 -334 -65 -557q396 382 652 382q124 0 213 -126t89 -303q0 -117 -53 -200zM1239 316v29q0 147 -54 240.5t-140 93.5
q-124 0 -335.5 -147t-357.5 -335h177q246 0 411 28t299 91z" />
    <glyph glyph-name="uniFEC6" unicode="&#x638;" horiz-adv-x="1687" arabic-form="final" 
d="M465 1678h173v-615q0 -335 -65 -557q396 382 652 382q124 0 213 -126t89 -300q0 -121 -53 -203q78 -62 202 -62h36v-197h-42q-132 0 -201.5 30.5t-124.5 112.5q-152 -94 -345.5 -131t-532.5 -37q-248 0 -466 34v198q142 -32 279 -32q101 151 143.5 331.5t42.5 459.5v712z
M440 173q644 0 913 143l1 29q0 148 -54.5 241t-140.5 93q-128 0 -327.5 -141t-391.5 -365zM1120 1271l111 111l111 -111l-111 -111z" />
    <glyph glyph-name="uniFEC7" unicode="&#x638;" horiz-adv-x="1524" arabic-form="initial" 
d="M-25 0v197h201q175 241 175 769v712h173v-615q0 -335 -66 -557q397 382 653 382q126 0 213.5 -127t87.5 -311q0 -450 -908 -450h-529zM1239 316v29q0 147 -54.5 240.5t-139.5 93.5q-124 0 -335.5 -147t-357.5 -335h176q247 0 412 28t299 91zM1006 1271l111 111l111 -111
l-111 -111z" />
    <glyph glyph-name="uniFEC8" unicode="&#x638;" horiz-adv-x="1573" arabic-form="medial" 
d="M1360 259q77 -62 201 -62h36v-197h-42q-131 0 -200.5 30.5t-124.5 112.5q-230 -143 -726 -143h-529v197h201q175 241 175 769v712h173v-615q0 -335 -66 -557q397 382 653 382q123 0 212 -126t89 -300q0 -120 -52 -203zM1239 316v29q0 147 -54.5 240.5t-139.5 93.5
q-124 0 -335.5 -147t-357.5 -335h176q247 0 412 28t299 91zM1006 1271l111 111l111 -111l-111 -111z" />
    <glyph glyph-name="uniFECA" unicode="&#x639;" horiz-adv-x="1273" arabic-form="final" 
d="M552 299q-169 179 -324 241v200q314 149 553 149q155 0 248 -75.5t93 -201.5q0 -171 -264 -330q125 -85 345 -85h95v-197h-134q-203 0 -280.5 29t-218.5 159q-194 -101 -262.5 -185t-68.5 -219q0 -167 134.5 -271.5t348.5 -104.5q201 0 401 51v-127q-245 -123 -437 -123
q-278 0 -461 158t-183 399q0 327 415 533zM733 396q186 103 186 194q0 119 -209 119q-144 0 -273 -50q172 -121 296 -263z" />
    <glyph glyph-name="uniFECB" unicode="&#x639;" horiz-adv-x="1043" arabic-form="initial" 
d="M-25 0v197h63q162 0 441 112q-293 174 -293 434q0 161 147.5 252t409.5 91q83 0 164 -14v-183q-116 24 -222 24q-168 0 -306 -82v-23q0 -105 64 -201q77 -113 175 -162.5t246 -49.5h141v-198h-177q-225 0 -377 -63l-43 -18q-29 -12 -82 -37q-169 -79 -310 -79h-41z" />
    <glyph glyph-name="uniFECC" unicode="&#x639;" horiz-adv-x="1147" arabic-form="medial" 
d="M-25 0v197h148q209 0 341 57q-197 217 -368 286v200q314 149 553 149q157 0 249 -76t92 -205q0 -96 -46 -167t-180 -183q123 -61 287 -61h121v-197h-131q-182 0 -253 22.5t-199 119.5q-115 -83 -212 -112.5t-258 -29.5h-144zM642 362q148 124 148 221q0 126 -212 126
q-144 0 -273 -50q141 -98 198 -157l100 -103q8 -8 39 -37z" />
    <glyph glyph-name="uniFECE" unicode="&#x63a;" horiz-adv-x="1273" arabic-form="final" 
d="M552 299q-169 179 -324 241v200q314 149 553 149q155 0 248 -75.5t93 -201.5q0 -171 -264 -330q125 -85 345 -85h95v-197h-134q-203 0 -280.5 29t-218.5 159q-194 -101 -262.5 -185t-68.5 -219q0 -167 134.5 -271.5t348.5 -104.5q201 0 401 51v-127q-245 -123 -437 -123
q-278 0 -461 158t-183 399q0 327 415 533zM733 396q186 103 186 194q0 119 -209 119q-144 0 -273 -50q172 -121 296 -263zM641 1271l111 111l111 -111l-111 -111z" />
    <glyph glyph-name="uniFECF" unicode="&#x63a;" horiz-adv-x="1043" arabic-form="initial" 
d="M-25 0v197h63q162 0 441 112q-293 174 -293 434q0 161 147.5 252t409.5 91q83 0 164 -14v-183q-116 24 -222 24q-168 0 -306 -82v-23q0 -105 64 -201q77 -113 175 -162.5t246 -49.5h141v-198h-177q-225 0 -377 -63l-43 -18q-29 -12 -82 -37q-169 -79 -310 -79h-41z
M600 1468l111 111l111 -111l-111 -111z" />
    <glyph glyph-name="uniFED0" unicode="&#x63a;" horiz-adv-x="1147" arabic-form="medial" 
d="M-25 0v197h148q209 0 341 57q-197 217 -368 286v200q314 149 553 149q157 0 249 -76t92 -205q0 -96 -46 -167t-180 -183q123 -61 287 -61h121v-197h-131q-182 0 -253 22.5t-199 119.5q-115 -83 -212 -112.5t-258 -29.5h-144zM642 362q148 124 148 221q0 126 -212 126
q-144 0 -273 -50q141 -98 198 -157l100 -103q8 -8 39 -37zM509 1271l111 111l111 -111l-111 -111z" />
    <glyph glyph-name="uniFED2" unicode="&#x641;" horiz-adv-x="2674" arabic-form="final" 
d="M2108 143q-413 -168 -1225 -168q-435 0 -603.5 101t-168.5 360q0 94 20 230h124q-11 -109 -11 -149q0 -199 139 -271.5t521 -72.5q680 0 1077 71q-149 125 -149 270q0 147 127.5 260.5t292.5 113.5q122 0 193 -75t71 -205q0 -102 -40 -171t-169 -190q135 -50 358 -50h34
v-197h-114q-130 0 -228.5 29.5t-248.5 113.5zM2169 328q82 70 164 180q0 214 -130 214q-118 0 -221 -158q62 -142 187 -236zM2114 1271l111 111l111 -111l-111 -111z" />
    <glyph glyph-name="uniFED3" unicode="&#x641;" horiz-adv-x="973" arabic-form="initial" 
d="M-24 0l-1 197h41q402 0 628 110q16 49 23 96q-57 -8 -115 -8q-380 0 -380 229q0 184 125.5 347.5t266.5 163.5q142 0 219.5 -130t77.5 -366q0 -341 -193.5 -490t-636.5 -149h-55zM684 598q0 154 -40.5 251.5t-104.5 97.5q-61 0 -112.5 -79t-78.5 -215q125 -61 263 -61
q24 0 73 6zM458 1517l111 112l111 -112l-111 -111z" />
    <glyph glyph-name="uniFED4" unicode="&#x641;" horiz-adv-x="1098" arabic-form="medial" 
d="M-25 0v197h122q192 0 270 34q-161 142 -161 280q0 149 127 263t293 114q122 0 193 -75t71 -205q0 -102 -40 -171.5t-169 -189.5q175 -50 407 -50h34v-197h-114q-255 0 -492 120q-217 -120 -435 -120h-106zM543 328q81 68 164 180q0 214 -130 214q-118 0 -221 -158
q62 -142 187 -236zM488 1271l111 111l111 -111l-111 -111z" />
    <glyph glyph-name="uniFED6" unicode="&#x642;" horiz-adv-x="1841" arabic-form="final" 
d="M1536 203q0 154 -40.5 251.5t-104.5 97.5q-61 0 -112.5 -79t-78.5 -215q124 -61 263 -61q24 0 73 6zM168 197h124q-37 -172 -37 -290q0 -247 138.5 -373t409.5 -126q429 0 700 372q16 147 16 229q-57 -9 -115 -9q-380 0 -380 229q0 184 125.5 347.5t266.5 163.5
q300 0 300 -543h149v-197h-161q-49 -339 -259 -535q-274 -255 -686 -255q-317 0 -482.5 149.5t-165.5 436.5q0 179 57 401zM1137 1123l111 111l111 -111l-111 -111zM1483 1123l111 111l111 -111l-111 -111z" />
    <glyph glyph-name="uniFED7" unicode="&#x642;" horiz-adv-x="973" arabic-form="initial" 
d="M-24 0l-1 197h41q402 0 628 110q16 49 23 96q-57 -8 -115 -8q-380 0 -380 229q0 184 125.5 347.5t266.5 163.5q142 0 219.5 -130t77.5 -366q0 -341 -193.5 -490t-636.5 -149h-55zM684 598q0 154 -40.5 251.5t-104.5 97.5q-61 0 -112.5 -79t-78.5 -215q125 -61 263 -61
q24 0 73 6zM285 1517l111 112l111 -112l-111 -111zM631 1517l111 112l111 -112l-111 -111z" />
    <glyph glyph-name="uniFED8" unicode="&#x642;" horiz-adv-x="1098" arabic-form="medial" 
d="M-25 0v197h122q192 0 270 34q-161 142 -161 280q0 149 127 263t293 114q122 0 193 -75t71 -205q0 -102 -40 -171.5t-169 -189.5q175 -50 407 -50h34v-197h-114q-255 0 -492 120q-217 -120 -435 -120h-106zM543 328q81 68 164 180q0 214 -130 214q-118 0 -221 -158
q62 -142 187 -236zM303 1271l111 111l111 -111l-111 -111zM648 1271l111 111l111 -111l-111 -111z" />
    <glyph glyph-name="uniFEDA" unicode="&#x643;" horiz-adv-x="2331" arabic-form="final" 
d="M2128 1678v-1120v-105q0 -150 39.5 -203t152.5 -53h36v-197h-69q-199 0 -262.5 74t-75.5 321q-218 -198 -533 -309t-658 -111q-345 0 -496 110.5t-151 363.5q0 85 20 217l123 1q-5 -52 -5 -83q0 -225 131.5 -318.5t449.5 -93.5q339 0 632 106t473 294q15 127 15 203v903
h178zM1055 638h-249l335 254l-96 50q-135 69 -135 132q0 110 135.5 207t289.5 97v-124q-164 -14 -275 -137l78 -41q113 -59 145 -85.5t32 -60.5q0 -62 -193 -233z" />
    <glyph glyph-name="uniFEDB" unicode="&#x643;" horiz-adv-x="941" arabic-form="initial" 
d="M-25 0v197h186q299 0 463 85l1 34q0 211 -158.5 413.5t-433.5 343.5v198l957 407v-192l-774 -330q257 -133 415.5 -347.5t158.5 -429.5q0 -159 -132 -260q-89 -68 -206 -93.5t-345 -25.5h-132z" />
    <glyph glyph-name="uniFEDC" unicode="&#x643;" horiz-adv-x="1066" arabic-form="medial" 
d="M-25 0v197h90q176 0 322 76q6 65 6 94q0 271 -176 483l-184 223v198l956 407v-192l-793 -338l543 -675q136 -170 198 -223t125 -53h28v-197h-38q-106 0 -193.5 72t-257.5 299l-58 77q0 -235 -110.5 -341.5t-354.5 -106.5h-103z" />
    <glyph glyph-name="uniFEDE" unicode="&#x644;" horiz-adv-x="1942" arabic-form="final" 
d="M1566 1678h173v-1120v-105q0 -150 40 -203t153 -53h35v-197h-24q-131 0 -204 81l-2 -35q-14 -216 -63 -323t-175 -195q-279 -194 -746 -194q-642 0 -642 508q0 136 49 380h124q-31 -195 -31 -301q0 -210 119 -299.5t400 -89.5q275 0 453 54t317 181q8 55 13 175l9 179
q2 53 2 123v1434z" />
    <glyph glyph-name="uniFEDF" unicode="&#x644;" horiz-adv-x="728" arabic-form="initial" 
d="M333 1678h173v-967q0 -362 -46 -486q-44 -119 -143.5 -172t-280.5 -53h-61v197h67q149 0 264 48q27 203 27 498v935z" />
    <glyph glyph-name="uniFEE0" unicode="&#x644;" horiz-adv-x="851" arabic-form="medial" 
d="M339 1678h172v-1196q0 -204 38 -244.5t231 -40.5h95v-197h-112q-230 0 -293.5 28t-106.5 150q-156 -178 -363 -178h-25v197h27q194 0 323 131q4 35 4 43l5 70q5 82 5 89v1148z" />
    <glyph glyph-name="uniFEE2" unicode="&#x645;" horiz-adv-x="1300" arabic-form="final" 
d="M1325 197v-197h-34q-134 0 -249 125q-82 -150 -208 -150q-93 0 -211 63t-219 166q-129 -180 -129 -280q0 -42 8 -127q4 -38 9 -122q6 -79 10 -129q6 -82 6 -115v-221h-172v244q0 81 -3 120l-9 131l-8 124q-5 75 -5 99q0 96 116 277q80 126 127 213l24 46l61 117
q63 121 114.5 165.5t128.5 44.5q178 0 313 -244l18 -31q8 -15 39 -76q67 -137 121 -190t127 -53h25zM506 380q27 -20 32 -24l79 -69q114 -98 287 -159q3 39 3 63q0 130 -85 265.5t-167 135.5q-51 0 -98 -100l-37 -80q-3 -6 -14 -32z" />
    <glyph glyph-name="uniFEE3" unicode="&#x645;" horiz-adv-x="1167" arabic-form="initial" 
d="M-25 0v197h21q110 0 162 39.5t131 181.5l50 89l29 52q77 135 134 183t141 48q148 0 280 -169t132 -359q0 -131 -64.5 -209t-174.5 -78q-214 0 -455 243q-10 -18 -15 -28q-67 -122 -125.5 -156t-205.5 -34h-40zM455 408q206 -205 421 -280q3 39 3 60q0 140 -87.5 271.5
t-181.5 131.5q-41 0 -70 -34.5t-85 -148.5z" />
    <glyph glyph-name="uniFEE4" unicode="&#x645;" horiz-adv-x="1273" arabic-form="medial" 
d="M361 218q-10 -18 -15 -28q-67 -122 -125.5 -156t-205.5 -34h-40v197h21q110 0 162 39.5t131 181.5l50 89l29 52q78 137 135 184t144 47q185 0 321 -243l17 -31q9 -15 39 -76q68 -137 122 -190t126 -53h25v-197h-33q-135 0 -250 125q-81 -150 -208 -150q-204 0 -445 243z
M455 408q206 -205 421 -280q3 39 3 60q0 140 -87.5 271.5t-181.5 131.5q-41 0 -70 -34.5t-85 -148.5z" />
    <glyph glyph-name="uniFEE6" unicode="&#x646;" horiz-adv-x="1917" arabic-form="final" 
d="M1702 263q89 -66 199 -66h41v-197h-37q-127 0 -200 51q-19 -255 -122 -388q-118 -153 -330 -241t-461 -88q-344 0 -512.5 145.5t-168.5 443.5q0 182 55 373h155q-33 -154 -33 -275q0 -491 546 -491q419 0 683 256q16 140 16 243q0 296 -130 588h208q63 -173 91 -354z
M865 950l111 111l111 -111l-111 -111z" />
    <glyph glyph-name="uniFEE7" unicode="&#x646;" horiz-adv-x="694" arabic-form="initial" 
d="M381 306q27 121 27 233q0 194 -46 349h190q31 -135 31 -290q0 -326 -176 -468q-162 -130 -382 -130h-50v197h57q194 0 349 109zM275 1271l111 111l111 -111l-111 -111z" />
    <glyph glyph-name="uniFEE8" unicode="&#x646;" horiz-adv-x="851" arabic-form="medial" 
d="M339 716h172v-234q0 -204 38 -244.5t231 -40.5h95v-197h-112q-230 0 -293.5 28t-106.5 150q-156 -178 -363 -178h-25v197h27q194 0 323 131q4 35 4 43l5 70q5 82 5 89v186zM314 1098l111 111l111 -111l-111 -111z" />
    <glyph glyph-name="uniFEEA" unicode="&#x647;" horiz-adv-x="1078" arabic-form="final" 
d="M695 1086h173v-578l3 -101q0 -116 42 -163t145 -47h44v-197h-56q-192 0 -271.5 84t-79.5 287v35q-126 -205 -334 -205q-120 0 -196.5 51t-76.5 131q0 127 162 275t445 281v147zM695 776q-246 -115 -435 -327q67 -63 153 -63q151 0 272 166q3 29 4 36l3 57q3 62 3 66v65z
" />
    <glyph glyph-name="uniFEEB" unicode="&#x647;" horiz-adv-x="1278" arabic-form="initial" 
d="M225 896v190q309 0 537 -125q189 -104 297.5 -265.5t108.5 -339.5q0 -356 -357 -356q-157 0 -336 103q-190 -103 -393 -103h-107v197h60q168 0 299 45q-173 140 -173 307q0 272 381 308q-141 40 -255 40zM511 324q108 67 204 162q0 108 -49.5 171t-133.5 63
q-106 0 -203 -95q51 -181 182 -301zM667 230q96 -50 188 -50q69 0 143 31q2 39 2 60q0 215 -139 368q14 -71 14 -115q0 -81 -42.5 -141t-165.5 -153z" />
    <glyph glyph-name="uniFEEC" unicode="&#x647;" horiz-adv-x="1149" arabic-form="medial" 
d="M1172 197v-197h-263q105 -67 164 -170t59 -218q0 -125 -86.5 -198t-233.5 -73q-247 0 -413 175.5t-209 483.5h-215v197h214q48 512 496 891q212 -342 212 -580q0 -205 -180 -311h455zM347 197h24q130 0 235 75t105 168q0 150 -119 352q-123 -154 -171 -270.5t-74 -324.5z
M352 0q61 -232 197 -363.5t314 -131.5q41 0 127 14q-43 230 -199.5 355.5t-401.5 125.5h-37z" />
    <glyph glyph-name="uniFEEE" unicode="&#x648;" horiz-adv-x="963" arabic-form="final" 
d="M631 0l-77 2q-410 0 -410 227q0 184 125.5 347.5t266.5 163.5q139 0 219.5 -132.5t80.5 -361.5l-1 -49h153v-197h-179q-111 -247 -225 -395t-380 -395h-402l105 82q289 225 430 360.5t268 310.5zM663 197q0 161 -41 258t-108 97q-136 0 -194 -294q125 -61 343 -61z" />
    <glyph glyph-name="uniFEF0" unicode="&#x649;" horiz-adv-x="1930" arabic-form="final" 
d="M203 247h123q-61 -225 -61 -408q0 -233 134 -332t447 -99q598 0 819 168l40 42h-104q-271 0 -370 44t-99 164q0 164 164 274t408 110q49 0 87 -3l85 -8q21 -2 51 -2h28v-197h-35q-21 0 -74 7q-131 18 -215 18q-133 0 -215.5 -38t-82.5 -100q0 -46 58.5 -65t198.5 -19h71
q140 0 193 -27.5t53 -98.5q0 -191 -317 -329t-756 -138q-373 0 -548 128t-175 401q0 201 92 508z" />
    <glyph glyph-name="uniFEF2" unicode="&#x64a;" horiz-adv-x="2160" arabic-form="final" 
d="M2186 197v-197h-21q-58 0 -92 12.5t-137 73.5q-17 10 -78 43l-44 24q-148 81 -271 81q-101 0 -185 -59l149 -68q159 -73 212.5 -117t53.5 -103q0 -146 -237 -238.5t-609 -92.5q-387 0 -601.5 127.5t-214.5 357.5q0 98 39 255h123q-19 -129 -19 -200q0 -148 136 -230
q187 -113 518 -113q487 0 684 117l-136 61q-60 27 -81 37l-111 52q-106 51 -106 120q0 110 122 188.5t293 78.5q157 0 324 -92l44 -25q9 -5 62 -37q93 -56 147 -56h36zM1205 -679l111 111l111 -111l-111 -111zM1551 -679l111 111l111 -111l-111 -111z" />
    <glyph glyph-name="uniFEF3" unicode="&#x64a;" horiz-adv-x="694" arabic-form="initial" 
d="M381 306q27 121 27 233q0 194 -46 349h190q31 -135 31 -290q0 -326 -176 -468q-162 -130 -382 -130h-50v197h57q194 0 349 109zM31 -407l111 111l111 -111l-111 -111zM376 -407l111 111l111 -111l-111 -111z" />
    <glyph glyph-name="uniFEF4" unicode="&#x64a;" horiz-adv-x="851" arabic-form="medial" 
d="M339 716h172v-234q0 -204 38 -244.5t231 -40.5h95v-197h-112q-230 0 -293.5 28t-106.5 150q-156 -178 -363 -178h-25v197h27q194 0 323 131q4 35 4 43l5 70q5 82 5 89v186zM141 -407l111 111l111 -111l-111 -111zM487 -407l111 111l111 -111l-111 -111z" />
    <glyph glyph-name="uniFEF5" unicode="&#xfef5;" horiz-adv-x="1162" arabic-form="isolated" 
d="M137 0v197q299 163 481 428q-31 60 -144 241l-141 229q-86 138 -190 287h208q46 -75 122 -193q154 -239 233 -391q35 161 35 337v543h173v-520q0 -309 -110 -521q136 -255 136 -364q0 -273 -538 -273h-265zM790 257q-34 107 -94 227q-103 -135 -288 -287h45q202 0 337 60
zM0 1457v89q99 140 169 140q31 0 91 -19l47 -16l43 -13q80 -24 111 -24q46 0 156 87v-89q-99 -139 -169 -139q-30 0 -91 19l-47 15l-42 13q-80 25 -112 25q-45 0 -156 -88z" />
    <glyph glyph-name="uniFEF6" unicode="&#xfef6;" horiz-adv-x="1299" arabic-form="final" 
d="M729 467q27 26 42 38q96 85 123.5 144.5t27.5 181.5v847h173v-1120v-105q0 -150 40 -203t153 -53h35v-197h-64q-196 0 -266.5 82.5t-70.5 313.5v77q-56 -61 -164 -154l-151 -131q-43 -37 -172 -136l-68 -52h-392l75 47l251 157q134 85 268 176l-8 48q-47 287 -113 463.5
t-245 490.5h221q134 -260 191 -431.5t114 -483.5zM41 1457v89q99 140 168 140q32 0 92 -19l47 -16l42 -13q81 -24 112 -24q45 0 156 87v-89q-99 -139 -170 -139q-29 0 -90 19l-48 15l-42 13q-80 25 -111 25q-46 0 -156 -88z" />
    <glyph glyph-name="uniFEF7" unicode="&#xfef7;" horiz-adv-x="1162" arabic-form="isolated" 
d="M137 0v197q300 163 481 428q-38 68 -114 190q-16 26 -111 183q-98 161 -189 285h209q30 -51 104 -165q91 -141 190 -320q35 163 35 337v543h172v-520q0 -309 -110 -521q137 -256 137 -364q0 -273 -539 -273h-265zM790 257q-33 107 -94 227q-103 -135 -288 -287h46
q202 0 336 60zM503 1723v-108q-122 32 -195 32q-21 0 -66 -5q41 -103 136 -174h144v-99h-482v99h171q-76 88 -76 153q0 119 217 119q57 0 151 -17z" />
    <glyph glyph-name="uniFEF8" unicode="&#xfef8;" horiz-adv-x="1299" arabic-form="final" 
d="M729 467q27 26 42 38q96 85 123.5 144.5t27.5 181.5v847h173v-1120v-105q0 -150 40 -203t153 -53h35v-197h-64q-196 0 -266.5 82.5t-70.5 313.5v77q-56 -61 -164 -154l-151 -131q-43 -37 -172 -136l-68 -52h-392l75 47l251 157q134 85 268 176l-8 48q-45 274 -108 449.5
t-199 405.5h222q104 -219 152.5 -375.5t100.5 -440.5zM563 1723v-108q-121 32 -195 32q-21 0 -65 -5q39 -102 136 -174h143v-99h-481v99h170q-76 89 -76 152q0 120 217 120q57 0 151 -17z" />
    <glyph glyph-name="uniFEF9" unicode="&#xfef9;" horiz-adv-x="1161" arabic-form="isolated" 
d="M137 0v197q299 163 481 428q-36 64 -138 228l-129 209l-164 258q-129 205 -187 284h209q24 -41 28 -47l86 -128q42 -64 117 -186l117 -192q73 -119 147 -253q37 147 37 337v543h173v-520q0 -175 -22 -278t-88 -243q136 -255 136 -364q0 -273 -538 -273h-265zM790 257
q-34 107 -94 227q-103 -135 -288 -287h45q202 0 337 60zM113 -790v104l312 88q-226 93 -226 210q0 98 120 171t313 93v-123q-185 -15 -326 -123q131 -125 305 -175v-104z" />
    <glyph glyph-name="uniFEFA" unicode="&#xfefa;" horiz-adv-x="1377" arabic-form="final" 
d="M1036 1678v-1196q0 -204 38 -244.5t231 -40.5h95v-197h-40q-236 0 -324 31.5t-133 133.5q-36 81 -36 284q-181 -208 -513 -449h-379l64 38q225 133 447 287l66 45q-84 714 -576 1234h276q341 -469 442 -1126q102 90 136 184.5t34 285.5v730h172zM168 -790v104l312 88
q-226 93 -226 210q0 98 120 171t313 93v-123q-185 -15 -326 -123q131 -125 305 -175v-104z" />
    <glyph glyph-name="uniFEFB" unicode="&#xfefb;" horiz-adv-x="1162" arabic-form="isolated" 
d="M137 0v197q299 163 481 428q-36 64 -138 228l-129 209l-164 258q-129 205 -187 284h209q24 -41 28 -47l86 -128q42 -64 117 -186l117 -192q73 -119 147 -253q37 147 37 337v543h173v-520q0 -175 -22 -278t-88 -243q136 -255 136 -364q0 -273 -538 -273h-265zM790 257
q-34 107 -94 227q-103 -135 -288 -287h45q202 0 337 60z" />
    <glyph glyph-name="uniFEFC" unicode="&#xfefc;" horiz-adv-x="1377" arabic-form="final" 
d="M1036 1678v-1196q0 -204 38 -244.5t231 -40.5h95v-197h-40q-236 0 -324 31.5t-133 133.5q-36 81 -36 284q-181 -208 -513 -449h-379l64 38q225 133 447 287l66 45q-84 714 -576 1234h276q341 -469 442 -1126q102 90 136 184.5t34 285.5v730h172z" />
    <glyph glyph-name=".notdef" horiz-adv-x="1536" 
d="M256 0h1024v1280h-1024v-1280zM319 63v1154h898v-1154h-898z" />
    <glyph glyph-name=".null" unicode="&#xe01b;" horiz-adv-x="1524" 
d="M1063 715h-1141l48 110h1139zM969 495h-1047l48 110h1047zM1188 149q-173 -149 -428 -149q-280 0 -470 190t-190 470t190 470t470 190t476 -196l-48 -111q-183 197 -428 197q-230 0 -390 -160t-160 -390t160 -390t390 -160q250 0 428 201v-162z" />
    <glyph glyph-name="nonmarkingreturn" unicode="&#xe002;" horiz-adv-x="1536" 
 />
    <glyph glyph-name="space" unicode=" " horiz-adv-x="647" 
 />
    <glyph glyph-name="exclam" unicode="!" horiz-adv-x="648" 
d="M225 0v197h197v-197h-197zM250 395l-25 789v296h197v-296l-24 -789h-148z" />
    <glyph glyph-name="quotedbl" unicode="&#x22;" horiz-adv-x="765" 
d="M136 1086l-25 493h197l-24 -493h-148zM481 1086l-25 493h198l-25 -493h-148z" />
    <glyph glyph-name="numbersign" unicode="#" horiz-adv-x="1295" 
d="M203 0l111 444h-299l25 124h305l87 345h-324l25 123h329l112 444h127l-111 -444h263l111 444h128l-111 -444h299l-24 -123h-306l-87 -345h324l-25 -124h-329l-111 -444h-128l111 444h-263l-111 -444h-128zM473 568h263l87 345h-264z" />
    <glyph glyph-name="dollar" unicode="$" horiz-adv-x="1295" 
d="M611 -123v123q-176 0 -395 83v170q226 -105 395 -105v531q-203 124 -277.5 219t-74.5 227q0 148 96.5 245.5t255.5 109.5v124h98v-124q146 0 321 -67v-161q-192 83 -321 93v-527q54 -33 81 -49q153 -93 209 -168t56 -186q0 -158 -93 -269.5t-253 -145.5v-123h-98z
M709 160q173 62 173 225q0 71 -33 116.5t-140 119.5v-461zM611 883v456q-179 -56 -179 -210q0 -76 37 -127.5t142 -118.5z" />
    <glyph glyph-name="percent" unicode="%" horiz-adv-x="1369" 
d="M24 -37l1166 1554h154l-1165 -1554h-155zM322 740q-141 0 -225.5 101t-84.5 270q0 170 85 269.5t230 99.5q144 0 229 -99.5t85 -268.5q0 -173 -85 -272.5t-234 -99.5zM325 839q78 0 123 73t45 200q0 123 -45 196.5t-121 73.5q-77 0 -122 -73.5t-45 -197.5t45 -198
t120 -74zM1038 0q-142 0 -226 100.5t-84 269.5q0 170 85 270t229 100t229.5 -99.5t85.5 -268.5q0 -174 -85 -273t-234 -99zM1040 99q79 0 124 73t45 200q0 123 -45.5 196.5t-121.5 73.5t-121 -73.5t-45 -198.5q0 -123 44.5 -197t119.5 -74z" />
    <glyph glyph-name="ampersand" unicode="&#x26;" horiz-adv-x="1428" 
d="M1061 0l-73 88q-164 -125 -383 -125q-232 0 -381.5 134.5t-149.5 342.5q0 342 361 464q-100 181 -100 301q0 131 104.5 221.5t253.5 90.5q144 0 237.5 -84.5t93.5 -214.5q0 -222 -325 -386q149 -264 347 -493q91 132 91 374l-1 74h196q0 -328 -196 -566q90 -114 205 -221
h-280zM902 202q-210 258 -400 585q-231 -92 -231 -299q0 -157 106.5 -267t259.5 -110q139 0 265 91zM627 957q212 97 212 258q0 70 -42.5 112t-111.5 42q-152 0 -152 -155q0 -102 94 -257z" />
    <glyph glyph-name="quotesingle" unicode="'" horiz-adv-x="469" 
d="M160 1036l-49 543h247l-50 -543h-148z" />
    <glyph glyph-name="parenleft" unicode="(" horiz-adv-x="666" 
d="M592 -160v-136q-216 147 -342.5 399.5t-126.5 538.5q0 285 126.5 537.5t342.5 399.5v-136q-147 -160 -209.5 -344t-62.5 -457q0 -274 62.5 -458t209.5 -344z" />
    <glyph glyph-name="parenright" unicode=")" horiz-adv-x="666" 
d="M74 1443v136q216 -147 342.5 -399.5t126.5 -537.5q0 -286 -126.5 -538.5t-342.5 -399.5v136q147 160 209 344t62 458q0 273 -62 457.5t-209 343.5z" />
    <glyph glyph-name="asterisk" unicode="*" horiz-adv-x="987" 
d="M832 1289l45 -141l-303 -66q3 11 3 15q0 41 -29 67zM777 838l-120 -87l-157 267q51 6 70 51zM331 751l-120 87l206 231q20 -45 70 -51zM110 1148l46 141l284 -125q-29 -25 -29 -67q0 -4 2 -15zM420 1480h148l-31 -308q-18 11 -43 11t-43 -11z" />
    <glyph glyph-name="plus" unicode="+" horiz-adv-x="1628" 
d="M740 0v518h-518v148h518v518h148v-518h518v-148h-518v-518h-148z" />
    <glyph glyph-name="comma" unicode="," horiz-adv-x="648" 
d="M200 -321v74q96 27 96 227v20h-96v247h247v-214q0 -329 -247 -354z" />
    <glyph glyph-name="hyphen" unicode="-" horiz-adv-x="1111" 
d="M148 518v148h814v-148h-814z" />
    <glyph glyph-name="period" unicode="." horiz-adv-x="648" 
d="M200 0v247h247v-247h-247z" />
    <glyph glyph-name="slash" unicode="/" horiz-adv-x="1074" 
d="M193 -296l533 1776h155l-533 -1776h-155z" />
    <glyph glyph-name="zero" unicode="0" horiz-adv-x="1295" 
d="M642 -37q-229 0 -370.5 215.5t-141.5 562.5q0 350 142.5 563t375.5 213t375.5 -213t142.5 -560q0 -356 -142.5 -568.5t-381.5 -212.5zM644 111q313 0 313 636q0 622 -309 622q-308 0 -308 -628q0 -630 304 -630z" />
    <glyph glyph-name="one" unicode="1" horiz-adv-x="1295" 
d="M308 0v148h296v1168l-296 -74v152l494 123v-1369h296v-148h-790z" />
    <glyph glyph-name="two" unicode="2" horiz-adv-x="1295" 
d="M170 0v173q86 201 348 438l113 101q218 197 218 391q0 124 -74.5 195t-204.5 71q-154 0 -363 -119v174q197 93 391 93q208 0 334 -112t126 -297q0 -133 -63.5 -236t-236.5 -250l-76 -65q-237 -201 -274 -384h643v-173h-881z" />
    <glyph glyph-name="three" unicode="3" horiz-adv-x="1295" 
d="M208 11v184q212 -84 334 -84q141 0 229.5 82.5t88.5 213.5q0 312 -437 312h-78v133l69 1q410 0 410 289q0 227 -270 227q-148 0 -326 -83v172q175 59 340 59q219 0 336.5 -88.5t117.5 -254.5q0 -261 -309 -372q358 -83 358 -392q0 -209 -138 -328t-379 -119
q-137 0 -346 48z" />
    <glyph glyph-name="four" unicode="4" horiz-adv-x="1295" 
d="M771 0v419h-666v149l666 912h185v-900h198v-161h-198v-419h-185zM298 580h486v658z" />
    <glyph glyph-name="five" unicode="5" horiz-adv-x="1295" 
d="M249 -6v176q147 -59 280 -59q146 0 229.5 86t83.5 237q0 333 -459 333q-52 0 -109 -7v720h749v-172h-576v-390q285 0 445 -131t160 -363q0 -216 -145.5 -338.5t-403.5 -122.5q-112 0 -254 31z" />
    <glyph glyph-name="six" unicode="6" horiz-adv-x="1295" 
d="M352 767q141 183 355 183q194 0 317.5 -128.5t123.5 -329.5q0 -231 -138.5 -380t-351.5 -149q-245 0 -383 197t-138 547q0 385 158.5 598t446.5 213q132 0 330 -56v-172q-209 80 -342 80q-378 0 -378 -603zM950 448q0 168 -75.5 264t-209.5 96q-125 0 -215 -84t-90 -202
q0 -186 85.5 -298.5t226.5 -112.5q127 0 202.5 91.5t75.5 245.5z" />
    <glyph glyph-name="seven" unicode="7" horiz-adv-x="1295" 
d="M308 0q29 173 82.5 299t189.5 346l404 650h-762v185h950v-185q-569 -839 -637 -1295h-227z" />
    <glyph glyph-name="eight" unicode="8" horiz-adv-x="1295" 
d="M471 806q-122 85 -169.5 158t-47.5 176q0 168 123 273t321 105q183 0 296.5 -89t113.5 -231q0 -215 -276 -392q335 -164 335 -423q0 -186 -140.5 -303t-362.5 -117q-218 0 -352.5 110.5t-134.5 290.5q0 266 294 442zM722 868q207 136 207 303q0 89 -69 143.5t-182 54.5
q-109 0 -177 -53.5t-68 -138.5q0 -83 61.5 -148.5t227.5 -160.5zM578 726q-119 -92 -161.5 -160.5t-42.5 -170.5q0 -127 82 -205.5t216 -78.5q129 0 210.5 67t81.5 174q0 86 -50.5 145.5t-195.5 145.5z" />
    <glyph glyph-name="nine" unicode="9" horiz-adv-x="1295" 
d="M233 9v167q188 -65 320 -65q184 0 287.5 156.5t103.5 435.5q-150 -185 -341 -185q-187 0 -317 137.5t-130 335.5q0 227 138.5 376.5t348.5 149.5q241 0 380 -193.5t139 -529.5q0 -382 -169.5 -606.5t-458.5 -224.5q-116 0 -301 46zM353 1030q0 -172 76.5 -271t209.5 -99
q125 0 213.5 85t88.5 205q0 189 -85.5 304.5t-224.5 115.5q-129 0 -203.5 -91.5t-74.5 -248.5z" />
    <glyph glyph-name="colon" unicode=":" horiz-adv-x="648" 
d="M225 0v197h197v-197h-197zM225 888v198h197v-198h-197z" />
    <glyph glyph-name="semicolon" unicode=";" horiz-adv-x="648" 
d="M225 -321v74q71 37 71 224v23h-71v197h197v-166q0 -303 -197 -352zM225 888v198h197v-198h-197z" />
    <glyph glyph-name="less" unicode="&#x3c;" horiz-adv-x="1628" 
d="M1406 0l-1184 592l1184 592v-165l-851 -426v-2l851 -425v-166z" />
    <glyph glyph-name="equal" unicode="=" horiz-adv-x="1628" 
d="M222 333v148h1184v-148h-1184zM222 703v148h1184v-148h-1184z" />
    <glyph glyph-name="greater" unicode="&#x3e;" horiz-adv-x="1628" 
d="M222 0v166l851 425v2l-851 426v165l1184 -592z" />
    <glyph glyph-name="question" unicode="?" horiz-adv-x="864" 
d="M250 0v197h197v-197h-197zM250 395v54q0 112 30.5 186t116.5 173l63 73q157 180 157 295q0 89 -69 141t-186 52q-153 0 -325 -74v167q185 56 346 56q204 0 324 -91.5t120 -247.5q0 -88 -34.5 -151.5t-132.5 -156.5l-62 -58q-93 -88 -122 -147.5t-29 -160.5v-110h-197z
" />
    <glyph glyph-name="at" unicode="@" horiz-adv-x="1758" 
d="M1093 44q-180 -81 -353 -81q-281 0 -464 173.5t-183 439.5q0 339 244 620q130 149 315.5 235t375.5 86q279 0 467.5 -180t188.5 -447q0 -248 -151 -421t-367 -173q-166 0 -166 115q0 42 21 105l40 126h-12q-181 -346 -387 -346q-87 0 -140 61t-53 161q0 142 72 301.5
t178 252.5q122 106 275 106q31 0 79 -3q49 -3 78 -3h137l-126 -636q-6 -32 -6 -62q0 -67 76 -67q133 0 237 142t104 324q0 230 -159 382t-401 152q-317 0 -563 -249.5t-246 -570.5q0 -226 154.5 -369.5t397.5 -143.5q157 0 301 72zM1073 833l39 195q-92 33 -160 33
q-100 0 -164 -56q-69 -59 -117 -189t-48 -256q0 -141 82 -141q62 0 162 112.5t206 301.5z" />
    <glyph glyph-name="A" unicode="A" horiz-adv-x="1413" 
d="M17 0l587 1480h208l578 -1480h-227l-161 410h-627l-163 -410h-195zM436 566h505l-252 638z" />
    <glyph glyph-name="B" unicode="B" horiz-adv-x="1178" 
d="M191 0v1480h384q222 0 340.5 -84t118.5 -242q0 -269 -304 -383q363 -111 363 -401q0 -130 -80 -231q-61 -77 -147 -108t-239 -31h-436zM399 157h43q231 0 299 29q130 55 130 204q0 132 -118 219.5t-295 87.5h-59v-540zM399 830h67q168 0 260.5 72t92.5 203
q0 218 -338 218h-82v-493z" />
    <glyph glyph-name="C" unicode="C" horiz-adv-x="1417" 
d="M1303 76q-219 -113 -478 -113q-345 0 -533 202.5t-188 573.5q0 370 191.5 574t539.5 204q199 0 466 -65v-197q-304 105 -469 105q-241 0 -373 -163t-132 -460q0 -283 141 -446.5t385 -163.5q210 0 450 129v-180z" />
    <glyph glyph-name="D" unicode="D" horiz-adv-x="1534" 
d="M191 0v1480h492q220 0 355.5 -49t234.5 -166q157 -186 157 -490q0 -369 -195 -572t-549 -203h-495zM401 157h269q288 0 408 155q129 165 129 443q0 261 -127 410q-77 91 -184 124.5t-322 33.5h-173v-1166z" />
    <glyph glyph-name="E" unicode="E" horiz-adv-x="1110" 
d="M191 0v1480h827v-157h-617v-475h517v-155h-517v-536h660v-157h-870z" />
    <glyph glyph-name="F" unicode="F" horiz-adv-x="1098" 
d="M191 0v1480h827v-157h-617v-496h518v-155h-518v-672h-210z" />
    <glyph glyph-name="G" unicode="G" horiz-adv-x="1480" 
d="M1303 40q-269 -77 -469 -77q-353 0 -541.5 201t-188.5 576q0 368 191 572.5t536 204.5q226 0 470 -67v-194q-306 104 -469 104q-240 0 -372.5 -163t-132.5 -459q0 -293 142 -455.5t398 -162.5q105 0 227 37v482h209v-599z" />
    <glyph glyph-name="H" unicode="H" horiz-adv-x="1505" 
d="M191 0v1480h210v-624h704v624h210v-1480h-210v699h-704v-699h-210z" />
    <glyph glyph-name="I" unicode="I" horiz-adv-x="590" 
d="M190 0v1480h210v-1480h-210z" />
    <glyph glyph-name="J" unicode="J" horiz-adv-x="637" 
d="M-184 -275v186q120 -39 212 -39q120 0 167.5 68.5t47.5 239.5v1300h210v-1293q0 -483 -457 -483q-70 0 -180 21z" />
    <glyph glyph-name="K" unicode="K" horiz-adv-x="1337" 
d="M191 0v1480h197v-728l599 728h211l-580 -706l683 -774h-266l-647 750v-750h-197z" />
    <glyph glyph-name="L" unicode="L" horiz-adv-x="1092" 
d="M191 0v1480h210v-1323h666v-157h-876z" />
    <glyph glyph-name="M" unicode="M" horiz-adv-x="1764" 
d="M191 0v1480h291l410 -1145l422 1145h260v-1480h-196v1204l-408 -1105h-203l-396 1108v-1207h-180z" />
    <glyph glyph-name="N" unicode="N" horiz-adv-x="1513" 
d="M191 0v1480h206l745 -1143v1143h180v-1480h-205l-746 1143v-1143h-180z" />
    <glyph glyph-name="O" unicode="O" horiz-adv-x="1591" 
d="M787 -37q-308 0 -495.5 213.5t-187.5 564.5q0 353 188.5 564.5t503.5 211.5q314 0 503 -211t189 -563q0 -359 -189 -569.5t-512 -210.5zM790 120q227 0 351 163.5t124 461.5q0 289 -124.5 452t-344.5 163q-221 0 -345 -163.5t-124 -454.5q0 -290 123 -456t340 -166z" />
    <glyph glyph-name="P" unicode="P" horiz-adv-x="1132" 
d="M191 0v1480h403q268 0 385 -90.5t117 -297.5q0 -236 -160 -370t-444 -134h-93v-588h-208zM399 747h85q187 0 289 86t102 243q0 133 -80 190t-267 57h-129v-576z" />
    <glyph glyph-name="Q" unicode="Q" horiz-adv-x="1591" 
d="M1505 -296q-349 113 -585 269q-94 -10 -145 -10q-298 0 -484.5 216t-186.5 561q0 354 188.5 565.5t503.5 211.5q316 0 504 -212t188 -568q0 -510 -379 -706q255 -112 529 -160zM790 120q227 0 351 163t124 461q0 289 -124 452.5t-345 163.5t-345 -163.5t-124 -454.5
q0 -290 123 -456t340 -166z" />
    <glyph glyph-name="R" unicode="R" horiz-adv-x="1295" 
d="M191 0v1480h448q213 0 326.5 -94t113.5 -273q0 -141 -78.5 -251t-220.5 -169l494 -693h-258l-421 626h-196v-626h-208zM399 783h68q396 0 396 311q0 229 -332 229h-132v-540z" />
    <glyph glyph-name="S" unicode="S" horiz-adv-x="1103" 
d="M100 28v208q250 -116 411 -116q124 0 199.5 65t75.5 171q0 87 -49.5 148t-182.5 136l-102 59q-189 108 -266.5 203.5t-77.5 222.5q0 171 124 281.5t316 110.5q171 0 361 -57v-192q-234 92 -349 92q-109 0 -180 -58t-71 -146q0 -74 52 -131t190 -136l106 -60
q192 -109 268 -206t76 -233q0 -193 -142.5 -310t-377.5 -117q-149 0 -381 65z" />
    <glyph glyph-name="T" unicode="T" horiz-adv-x="1295" 
d="M543 0v1323h-525v157h1260v-157h-525v-1323h-210z" />
    <glyph glyph-name="U" unicode="U" horiz-adv-x="1419" 
d="M179 1480h210v-934q0 -223 82.5 -324.5t262.5 -101.5q176 0 249.5 95.5t73.5 323.5v941h184v-938q0 -194 -38 -298t-137 -183q-124 -98 -346 -98q-277 0 -409 143t-132 442v932z" />
    <glyph glyph-name="V" unicode="V" horiz-adv-x="1339" 
d="M595 0l-559 1480h210l458 -1212l442 1212h184l-537 -1480h-198z" />
    <glyph glyph-name="W" unicode="W" horiz-adv-x="1752" 
d="M383 0l-381 1480h202l303 -1169l279 1169h202l264 -1153l326 1153h171l-415 -1480h-209l-261 1141l-273 -1141h-208z" />
    <glyph glyph-name="X" unicode="X" horiz-adv-x="1282" 
d="M16 0l491 743l-467 737h248l356 -558l374 558h198l-473 -715l485 -765h-248l-376 587l-389 -587h-199z" />
    <glyph glyph-name="Y" unicode="Y" horiz-adv-x="1276" 
d="M511 0v618l-494 862h240l384 -668l414 668h195l-529 -858v-622h-210z" />
    <glyph glyph-name="Z" unicode="Z" horiz-adv-x="1238" 
d="M95 0v168l795 1155h-746v157h998v-157l-795 -1155h795v-168h-1047z" />
    <glyph glyph-name="bracketleft" unicode="[" horiz-adv-x="666" 
d="M197 -296v1875h395v-148h-222v-1579h222v-148h-395z" />
    <glyph glyph-name="backslash" unicode="\" horiz-adv-x="1074" 
d="M881 -296h-155l-533 1776h155z" />
    <glyph glyph-name="bracketright" unicode="]" horiz-adv-x="666" 
d="M469 1579v-1875h-395v148h222v1579h-222v148h395z" />
    <glyph glyph-name="asciicircum" unicode="^" horiz-adv-x="1295" 
d="M648 1149l-377 -754h-166l543 1085l543 -1085h-166z" />
    <glyph glyph-name="underscore" unicode="_" horiz-adv-x="1024" 
d="M86 -148v148h851v-148h-851z" />
    <glyph glyph-name="grave" unicode="`" horiz-adv-x="1258" 
d="M864 1283h-148l-321 321h228z" />
    <glyph glyph-name="a" unicode="a" horiz-adv-x="1131" 
d="M757 138q-177 -163 -341 -163q-135 0 -224 84.5t-89 213.5q0 178 149.5 273.5t429.5 95.5h46v131q0 189 -194 189q-156 0 -337 -96v163q199 81 373 81q182 0 268.5 -82t86.5 -255v-492q0 -169 104 -169q13 0 38 4l14 -109q-67 -32 -148 -32q-138 0 -176 163zM728 245v281
l-66 2q-162 0 -262 -61.5t-100 -161.5q0 -71 50 -120t122 -49q123 0 256 109z" />
    <glyph glyph-name="b" unicode="b" horiz-adv-x="1289" 
d="M197 -12v1591h197v-697q121 228 363 228q196 0 308.5 -143t112.5 -391q0 -270 -127.5 -435.5t-335.5 -165.5q-193 0 -321 148l-24 -135h-173zM394 259q152 -136 290 -136q136 0 210 113.5t74 319.5q0 382 -252 382q-165 0 -322 -179v-500z" />
    <glyph glyph-name="c" unicode="c" horiz-adv-x="1049" 
d="M951 33q-191 -58 -330 -58q-220 0 -365 163t-145 411q0 265 143.5 413t400.5 148q127 0 284 -35v-165q-167 49 -272 49q-151 0 -242.5 -113.5t-91.5 -302.5q0 -183 94 -296t246 -113q135 0 278 69v-170z" />
    <glyph glyph-name="d" unicode="d" horiz-adv-x="1289" 
d="M894 0v204q-120 -229 -362 -229q-196 0 -308.5 143t-112.5 391q0 271 127.5 436t335.5 165q193 0 320 -148v617h198v-1579h-198zM894 827q-153 135 -290 135q-135 0 -209 -113t-74 -320q0 -381 252 -381q164 0 321 179v500z" />
    <glyph glyph-name="e" unicode="e" horiz-adv-x="1141" 
d="M993 35q-198 -60 -339 -60q-240 0 -391.5 159.5t-151.5 413.5q0 247 133.5 405t341.5 158q197 0 304.5 -140t107.5 -398l-1 -61h-685q43 -387 379 -387q123 0 302 66v-156zM321 660h479q0 303 -226 303q-227 0 -253 -303z" />
    <glyph glyph-name="f" unicode="f" horiz-adv-x="753" 
d="M234 0v938h-154v148h154v130q0 388 354 388q99 0 225 -33v-156q-133 41 -213 41q-97 0 -132.5 -46.5t-35.5 -172.5v-151h271v-148h-271v-938h-198z" />
    <glyph glyph-name="g" unicode="g" horiz-adv-x="1277" 
d="M201 -361l23 171q171 -81 337 -81q333 0 333 353v171q-109 -228 -358 -228q-195 0 -310 142t-115 383q0 248 131 404t339 156q182 0 313 -148v124h198v-790q0 -255 -26.5 -377.5t-99.5 -200.5q-129 -137 -401 -137q-190 0 -364 58zM894 376v451q-130 135 -283 135
q-136 0 -213 -109t-77 -299q0 -357 251 -357q171 0 322 179z" />
    <glyph glyph-name="h" unicode="h" horiz-adv-x="1271" 
d="M197 0v1579h197v-697q156 228 382 228q141 0 225 -89.5t84 -240.5v-780h-197v716q0 121 -35.5 172.5t-117.5 51.5q-181 0 -341 -237v-703h-197z" />
    <glyph glyph-name="i" unicode="i" horiz-adv-x="592" 
d="M197 0v1086h197v-1086h-197zM197 1283v197h197v-197h-197z" />
    <glyph glyph-name="j" unicode="j" horiz-adv-x="623" 
d="M-154 -369v156q138 -58 210 -58q104 0 138 54t34 217v1086h198v-1086q0 -419 -354 -419q-105 0 -226 50zM228 1283v197h198v-197h-198z" />
    <glyph glyph-name="k" unicode="k" horiz-adv-x="1197" 
d="M197 0v1579h197v-1020l460 527h212l-439 -507l530 -579h-252l-511 557v-557h-197z" />
    <glyph glyph-name="l" unicode="l" horiz-adv-x="592" 
d="M197 0v1579h197v-1579h-197z" />
    <glyph glyph-name="m" unicode="m" horiz-adv-x="1912" 
d="M197 0v1086h197v-204q144 228 370 228q218 0 297 -228q140 229 364 229q144 0 223 -84.5t79 -236.5v-790h-198v759q0 186 -147 186q-153 0 -321 -217v-728h-198v759q0 187 -150 187q-149 0 -319 -218v-728h-197z" />
    <glyph glyph-name="n" unicode="n" horiz-adv-x="1271" 
d="M197 0v1086h197v-204q156 228 382 228q141 0 225 -89.5t84 -240.5v-780h-197v716q0 121 -35.5 172.5t-117.5 51.5q-181 0 -341 -237v-703h-197z" />
    <glyph glyph-name="o" unicode="o" horiz-adv-x="1258" 
d="M622 -25q-233 0 -372 154.5t-139 413.5q0 262 139.5 414.5t378.5 152.5t378.5 -152.5t139.5 -412.5q0 -266 -140 -418t-385 -152zM625 123q313 0 313 422q0 417 -309 417q-308 0 -308 -419q0 -199 80 -309.5t224 -110.5z" />
    <glyph glyph-name="p" unicode="p" horiz-adv-x="1289" 
d="M197 -395v1481h197v-204q121 228 363 228q196 0 308.5 -143t112.5 -391q0 -270 -127.5 -435.5t-335.5 -165.5q-193 0 -321 148v-518h-197zM394 259q152 -136 290 -136q136 0 210 113.5t74 319.5q0 382 -252 382q-165 0 -322 -179v-500z" />
    <glyph glyph-name="q" unicode="q" horiz-adv-x="1289" 
d="M894 -395v599q-120 -229 -362 -229q-196 0 -308.5 143t-112.5 391q0 271 127.5 436t335.5 165q193 0 320 -148v124h198v-1481h-198zM894 827q-153 135 -290 135q-135 0 -209 -113t-74 -320q0 -381 252 -381q164 0 321 179v500z" />
    <glyph glyph-name="r" unicode="r" horiz-adv-x="838" 
d="M197 0v1086h197v-204q117 228 340 228q30 0 63 -5v-184q-51 17 -90 17q-187 0 -313 -222v-716h-197z" />
    <glyph glyph-name="s" unicode="s" horiz-adv-x="1044" 
d="M157 38v181q193 -96 336 -96q85 0 141 46t56 115q0 101 -157 167l-115 49q-255 106 -255 305q0 142 100.5 223.5t275.5 81.5q91 0 225 -25l41 -8v-164q-165 49 -262 49q-190 0 -190 -138q0 -89 144 -150l95 -40q161 -68 228 -143.5t67 -188.5q0 -143 -113 -235t-289 -92
q-135 0 -328 63z" />
    <glyph glyph-name="t" unicode="t" horiz-adv-x="766" 
d="M681 0q-91 -25 -158 -25q-150 0 -234 86t-84 239v638h-136v148h136v197l197 19v-216h284v-148h-284v-602q0 -213 184 -213q39 0 95 13v-136z" />
    <glyph glyph-name="u" unicode="u" horiz-adv-x="1271" 
d="M876 0v204q-157 -229 -381 -229q-142 0 -226 89.5t-84 241.5v780h197v-716q0 -122 35.5 -173.5t118.5 -51.5q180 0 340 237v704h197v-1086h-197z" />
    <glyph glyph-name="v" unicode="v" horiz-adv-x="1060" 
d="M422 0l-404 1086h197l316 -845l333 845h184l-429 -1086h-197z" />
    <glyph glyph-name="w" unicode="w" horiz-adv-x="1578" 
d="M323 0l-311 1086h193l238 -841l257 841h197l225 -841l273 841h169l-354 -1086h-198l-230 841l-260 -841h-199z" />
    <glyph glyph-name="x" unicode="x" horiz-adv-x="1256" 
d="M88 0l413 561l-401 525h234l317 -418l287 418h192l-376 -551l409 -535h-234l-327 430l-316 -430h-198z" />
    <glyph glyph-name="y" unicode="y" horiz-adv-x="1070" 
d="M260 -395l176 395l-420 1086h213l311 -818l332 818h186l-593 -1481h-205z" />
    <glyph glyph-name="z" unicode="z" horiz-adv-x="1174" 
d="M123 0v148l672 790h-641v148h884v-148l-672 -790h685v-148h-928z" />
    <glyph glyph-name="braceleft" unicode="{" horiz-adv-x="666" 
d="M25 716h49q152 0 152 161q0 68 -15 140l-19 87q-19 86 -19 168q0 133 95.5 215t262.5 92v-148h-28q-68 0 -113 -35.5t-45 -88.5q0 -24 13 -95l17 -102q11 -66 11 -157q0 -187 -147 -311q147 -125 147 -313q0 -90 -11 -156l-17 -102q-13 -71 -13 -96q0 -52 45.5 -87.5
t112.5 -35.5h28v-148q-168 10 -263 92.5t-95 215.5q0 82 19 167l19 87q15 72 15 142q0 160 -152 160h-49v148z" />
    <glyph glyph-name="bar" unicode="|" horiz-adv-x="765" 
d="M308 -296v1875h148v-1875h-148z" />
    <glyph glyph-name="braceright" unicode="}" horiz-adv-x="666" 
d="M642 568h-50q-152 0 -152 -162q0 -68 16 -140l19 -87q19 -85 19 -168q0 -133 -95.5 -215t-262.5 -92v148h28q67 0 112.5 35.5t45.5 87.5q0 25 -13 96l-17 102q-12 64 -12 158q0 185 147 311q-147 124 -147 312q0 92 12 156l17 102q13 71 13 97q0 51 -45.5 86.5
t-112.5 35.5h-28v148q168 -10 263 -92t95 -216q0 -81 -19 -167l-19 -87q-16 -72 -16 -142q0 -159 152 -159h50v-148z" />
    <glyph glyph-name="asciitilde" unicode="~" horiz-adv-x="1295" 
d="M105 444q0 145 77 237t199 92q80 0 215 -71l107 -56l128 -69q45 -22 91 -22q55 0 88 50t33 135h148q-21 -333 -269 -333q-86 0 -242 80l-112 58l-119 62q-36 18 -71 18q-55 0 -90 -50.5t-35 -130.5h-148z" />
    <glyph glyph-name="quotesinglbase" horiz-adv-x="648" 
d="M200 -296v74q96 27 96 202v20h-96v247h247v-214q0 -303 -247 -329z" />
    <glyph glyph-name="quotesinglbase" unicode="&#x201a;" horiz-adv-x="648" 
d="M200 -296v74q96 27 96 202v20h-96v247h247v-214q0 -303 -247 -329z" />
    <glyph glyph-name="florin" horiz-adv-x="1295" 
d="M237 -296l201 1012h-166v148h196l21 106q109 547 496 547q109 0 228 -29l-30 -156q-105 38 -199 38q-215 0 -276 -310l-39 -196h189v-148h-218l-202 -1012h-201z" />
    <glyph glyph-name="florin" unicode="&#x192;" horiz-adv-x="1295" 
d="M237 -296l201 1012h-166v148h196l21 106q109 547 496 547q109 0 228 -29l-30 -156q-105 38 -199 38q-215 0 -276 -310l-39 -196h189v-148h-218l-202 -1012h-201z" />
    <glyph glyph-name="quotedblbase" horiz-adv-x="765" 
d="M111 -321v74q71 37 71 224v23h-71v197h197v-166q0 -303 -197 -352zM456 -321v74q71 37 71 224v23h-71v197h198v-166q0 -303 -198 -352z" />
    <glyph glyph-name="quotedblbase" unicode="&#x201e;" horiz-adv-x="765" 
d="M111 -321v74q71 37 71 224v23h-71v197h197v-166q0 -303 -197 -352zM456 -321v74q71 37 71 224v23h-71v197h198v-166q0 -303 -198 -352z" />
    <glyph glyph-name="ellipsis" unicode="&#x85;" horiz-adv-x="2048" 
d="M243 0v197h197v-197h-197zM926 0v197h197v-197h-197zM1608 0v197h198v-197h-198z" />
    <glyph glyph-name="ellipsis" unicode="&#x2026;" horiz-adv-x="2048" 
d="M243 0v197h197v-197h-197zM926 0v197h197v-197h-197zM1608 0v197h198v-197h-198z" />
    <glyph glyph-name="dagger" horiz-adv-x="1295" 
d="M549 -296l24 1135l-345 -25v148l345 -24l-24 542h197l-25 -542l346 24v-148l-346 25l25 -1135h-197z" />
    <glyph glyph-name="dagger" unicode="&#x2020;" horiz-adv-x="1295" 
d="M549 -296l24 1135l-345 -25v148l345 -24l-24 542h197l-25 -542l346 24v-148l-346 25l25 -1135h-197z" />
    <glyph glyph-name="daggerdbl" horiz-adv-x="1295" 
d="M549 -296l24 543l-345 -25v148l345 -25v494l-345 -25v148l345 -24l-24 542h197l-25 -542l346 24v-148l-346 25v-494l346 25v-148l-346 25l25 -543h-197z" />
    <glyph glyph-name="daggerdbl" unicode="&#x2021;" horiz-adv-x="1295" 
d="M549 -296l24 543l-345 -25v148l345 -25v494l-345 -25v148l345 -24l-24 542h197l-25 -542l346 24v-148l-346 25v-494l346 25v-148l-346 25l25 -543h-197z" />
    <glyph glyph-name="circumflex" horiz-adv-x="1258" 
d="M279 1283l241 321h218l241 -321h-148l-201 202h-2l-201 -202h-148z" />
    <glyph glyph-name="circumflex" unicode="&#x2c6;" horiz-adv-x="1258" 
d="M279 1283l241 321h218l241 -321h-148l-201 202h-2l-201 -202h-148z" />
    <glyph glyph-name="perthousand" horiz-adv-x="2073" 
d="M24 -37l1166 1554h154l-1165 -1554h-155zM322 740q-141 0 -225.5 101t-84.5 270q0 170 85 269.5t230 99.5q144 0 229 -99.5t85 -268.5q0 -173 -85 -272.5t-234 -99.5zM325 839q78 0 123 73t45 200q0 123 -45 196.5t-121 73.5q-77 0 -122 -73.5t-45 -197.5t45 -198
t120 -74zM1038 0q-142 0 -226 100.5t-84 269.5q0 170 85 270t229 100t229.5 -99.5t85.5 -268.5q0 -174 -85 -273t-234 -99zM1040 99q79 0 124 73t45 200q0 123 -45.5 196.5t-121.5 73.5t-121 -73.5t-45 -198.5q0 -123 44.5 -197t119.5 -74zM1741 0q-141 0 -225.5 100.5
t-84.5 269.5q0 170 85 270t229 100q145 0 230 -99.5t85 -268.5q0 -174 -85 -273t-234 -99zM1743 99q79 0 124 73t45 200q0 123 -45.5 196.5t-121.5 73.5t-121 -73.5t-45 -198.5q0 -123 45 -197t119 -74z" />
    <glyph glyph-name="perthousand" unicode="&#x2030;" horiz-adv-x="2073" 
d="M24 -37l1166 1554h154l-1165 -1554h-155zM322 740q-141 0 -225.5 101t-84.5 270q0 170 85 269.5t230 99.5q144 0 229 -99.5t85 -268.5q0 -173 -85 -272.5t-234 -99.5zM325 839q78 0 123 73t45 200q0 123 -45 196.5t-121 73.5q-77 0 -122 -73.5t-45 -197.5t45 -198
t120 -74zM1038 0q-142 0 -226 100.5t-84 269.5q0 170 85 270t229 100t229.5 -99.5t85.5 -268.5q0 -174 -85 -273t-234 -99zM1040 99q79 0 124 73t45 200q0 123 -45.5 196.5t-121.5 73.5t-121 -73.5t-45 -198.5q0 -123 44.5 -197t119.5 -74zM1741 0q-141 0 -225.5 100.5
t-84.5 269.5q0 170 85 270t229 100q145 0 230 -99.5t85 -268.5q0 -174 -85 -273t-234 -99zM1743 99q79 0 124 73t45 200q0 123 -45.5 196.5t-121.5 73.5t-121 -73.5t-45 -198.5q0 -123 45 -197t119 -74z" />
    <glyph glyph-name="Scaron" horiz-adv-x="1103" 
d="M100 28v208q250 -116 411 -116q124 0 199.5 65t75.5 171q0 87 -49.5 148t-182.5 136l-102 59q-189 108 -266.5 203.5t-77.5 222.5q0 171 124 281.5t316 110.5q171 0 361 -57v-192q-234 92 -349 92q-109 0 -180 -58t-71 -146q0 -74 52 -131t190 -136l106 -60
q192 -109 268 -206t76 -233q0 -193 -142.5 -310t-377.5 -117q-149 0 -381 65zM925 1926l-241 -321h-218l-241 321h148l201 -202h2l201 202h148z" />
    <glyph glyph-name="Scaron" unicode="&#x160;" horiz-adv-x="1103" 
d="M100 28v208q250 -116 411 -116q124 0 199.5 65t75.5 171q0 87 -49.5 148t-182.5 136l-102 59q-189 108 -266.5 203.5t-77.5 222.5q0 171 124 281.5t316 110.5q171 0 361 -57v-192q-234 92 -349 92q-109 0 -180 -58t-71 -146q0 -74 52 -131t190 -136l106 -60
q192 -109 268 -206t76 -233q0 -193 -142.5 -310t-377.5 -117q-149 0 -381 65zM925 1926l-241 -321h-218l-241 321h148l201 -202h2l201 202h148z" />
    <glyph glyph-name="guilsinglleft" horiz-adv-x="679" 
d="M604 913l-296 -370l296 -370l-98 -74l-395 444l395 444z" />
    <glyph glyph-name="guilsinglleft" unicode="&#x2039;" horiz-adv-x="679" 
d="M604 913l-296 -370l296 -370l-98 -74l-395 444l395 444z" />
    <glyph glyph-name="OE" horiz-adv-x="2048" 
d="M1129 58q-156 -95 -347 -95q-304 0 -491 214.5t-187 562.5q0 353 188 565t501 212q181 0 336 -94v57h827v-157h-617v-475h517v-155l-517 6v-542h660v-157h-870v58zM1129 569v342q0 234 -80.5 341.5t-255.5 107.5q-219 0 -342.5 -164.5t-123.5 -455.5q0 -292 124 -456
t345 -164q173 0 253 108t80 341z" />
    <glyph glyph-name="OE" unicode="&#x152;" horiz-adv-x="2048" 
d="M1129 58q-156 -95 -347 -95q-304 0 -491 214.5t-187 562.5q0 353 188 565t501 212q181 0 336 -94v57h827v-157h-617v-475h517v-155l-517 6v-542h660v-157h-870v58zM1129 569v342q0 234 -80.5 341.5t-255.5 107.5q-219 0 -342.5 -164.5t-123.5 -455.5q0 -292 124 -456
t345 -164q173 0 253 108t80 341z" />
    <glyph glyph-name="quoteleft" horiz-adv-x="648" 
d="M447 1579v-74q-96 -27 -96 -226v-21h96v-246h-247v214q0 327 247 353z" />
    <glyph glyph-name="quoteleft" unicode="&#x2018;" horiz-adv-x="648" 
d="M447 1579v-74q-96 -27 -96 -226v-21h96v-246h-247v214q0 327 247 353z" />
    <glyph glyph-name="quoteright" horiz-adv-x="648" 
d="M200 1012v74q96 27 96 226v20h-96v247h247v-214q0 -329 -247 -353z" />
    <glyph glyph-name="quoteright" unicode="&#x2019;" horiz-adv-x="648" 
d="M200 1012v74q96 27 96 226v20h-96v247h247v-214q0 -329 -247 -353z" />
    <glyph glyph-name="quotedblleft" horiz-adv-x="765" 
d="M654 1579v-74q-71 -37 -71 -224v-23h71v-197h-198v166q0 303 198 352zM308 1579v-74q-70 -37 -70 -224v-23h70v-197h-197v166q0 303 197 352z" />
    <glyph glyph-name="quotedblleft" unicode="&#x201c;" horiz-adv-x="765" 
d="M654 1579v-74q-71 -37 -71 -224v-23h71v-197h-198v166q0 303 198 352zM308 1579v-74q-70 -37 -70 -224v-23h70v-197h-197v166q0 303 197 352z" />
    <glyph glyph-name="quotedblright" horiz-adv-x="765" 
d="M111 1061v74q71 37 71 224v23h-71v197h197v-166q0 -303 -197 -352zM456 1061v74q71 37 71 224v23h-71v197h198v-166q0 -303 -198 -352z" />
    <glyph glyph-name="quotedblright" unicode="&#x201d;" horiz-adv-x="765" 
d="M111 1061v74q71 37 71 224v23h-71v197h197v-166q0 -303 -197 -352zM456 1061v74q71 37 71 224v23h-71v197h198v-166q0 -303 -198 -352z" />
    <glyph glyph-name="bullet" horiz-adv-x="1148" 
d="M222 597q0 142 104 244.5t248 102.5q146 0 249 -103t103 -249q0 -145 -103 -248.5t-248 -103.5q-148 0 -250.5 103.5t-102.5 253.5z" />
    <glyph glyph-name="bullet" unicode="&#x2022;" horiz-adv-x="1148" 
d="M222 597q0 142 104 244.5t248 102.5q146 0 249 -103t103 -249q0 -145 -103 -248.5t-248 -103.5q-148 0 -250.5 103.5t-102.5 253.5z" />
    <glyph glyph-name="endash" horiz-adv-x="1024" 
d="M123 518v148h777v-148h-777z" />
    <glyph glyph-name="endash" unicode="&#x2013;" horiz-adv-x="1024" 
d="M123 518v148h777v-148h-777z" />
    <glyph glyph-name="emdash" horiz-adv-x="2048" 
d="M222 518v148h1604v-148h-1604z" />
    <glyph glyph-name="emdash" unicode="&#x2014;" horiz-adv-x="2048" 
d="M222 518v148h1604v-148h-1604z" />
    <glyph glyph-name="tilde" horiz-adv-x="1258" 
d="M296 1283q11 234 185 234q73 0 135 -38l60 -37q56 -35 86 -35q69 0 77 110h123q-11 -234 -185 -234q-73 0 -135 39l-60 37q-56 34 -86 34q-68 0 -77 -110h-123z" />
    <glyph glyph-name="tilde" unicode="&#x2dc;" horiz-adv-x="1258" 
d="M296 1283q11 234 185 234q73 0 135 -38l60 -37q56 -35 86 -35q69 0 77 110h123q-11 -234 -185 -234q-73 0 -135 39l-60 37q-56 34 -86 34q-68 0 -77 -110h-123z" />
    <glyph glyph-name="trademark" horiz-adv-x="1653" 
d="M247 740v617h-247v123h666v-123h-247v-617h-172zM790 740v740h233l156 -427l150 427h213v-740h-173v537l-163 -475h-118l-163 432v-494h-135z" />
    <glyph glyph-name="trademark" unicode="&#x2122;" horiz-adv-x="1653" 
d="M247 740v617h-247v123h666v-123h-247v-617h-172zM790 740v740h233l156 -427l150 427h213v-740h-173v537l-163 -475h-118l-163 432v-494h-135z" />
    <glyph glyph-name="scaron" horiz-adv-x="1044" 
d="M157 38v181q193 -96 336 -96q85 0 141 46t56 115q0 101 -157 167l-115 49q-255 106 -255 305q0 142 100.5 223.5t275.5 81.5q91 0 225 -25l41 -8v-164q-165 49 -262 49q-190 0 -190 -138q0 -89 144 -150l95 -40q161 -68 228 -143.5t67 -188.5q0 -143 -113 -235t-289 -92
q-135 0 -328 63zM871 1604l-241 -321h-218l-241 321h148l201 -202h2l201 202h148z" />
    <glyph glyph-name="scaron" unicode="&#x161;" horiz-adv-x="1044" 
d="M157 38v181q193 -96 336 -96q85 0 141 46t56 115q0 101 -157 167l-115 49q-255 106 -255 305q0 142 100.5 223.5t275.5 81.5q91 0 225 -25l41 -8v-164q-165 49 -262 49q-190 0 -190 -138q0 -89 144 -150l95 -40q161 -68 228 -143.5t67 -188.5q0 -143 -113 -235t-289 -92
q-135 0 -328 63zM871 1604l-241 -321h-218l-241 321h148l201 -202h2l201 202h148z" />
    <glyph glyph-name="guilsinglright" horiz-adv-x="679" 
d="M74 173l296 370l-296 370l99 74l394 -444l-394 -444z" />
    <glyph glyph-name="guilsinglright" unicode="&#x203a;" horiz-adv-x="679" 
d="M74 173l296 370l-296 370l99 74l394 -444l-394 -444z" />
    <glyph glyph-name="oe" horiz-adv-x="1901" 
d="M979 174q-130 -199 -359 -199q-232 0 -370.5 155t-138.5 413q0 259 138.5 413t372.5 154q218 0 352 -200q122 200 365 200q417 0 417 -598h-673q29 -389 365 -389q140 0 308 71v-157q-193 -62 -350 -62q-281 0 -427 199zM619 123q263 0 263 416q0 423 -258 423
q-143 0 -223 -110.5t-80 -308.5q0 -196 79.5 -308t218.5 -112zM1090 648h456q0 315 -214 315q-217 0 -242 -315z" />
    <glyph glyph-name="oe" unicode="&#x153;" horiz-adv-x="1901" 
d="M979 174q-130 -199 -359 -199q-232 0 -370.5 155t-138.5 413q0 259 138.5 413t372.5 154q218 0 352 -200q122 200 365 200q417 0 417 -598h-673q29 -389 365 -389q140 0 308 71v-157q-193 -62 -350 -62q-281 0 -427 199zM619 123q263 0 263 416q0 423 -258 423
q-143 0 -223 -110.5t-80 -308.5q0 -196 79.5 -308t218.5 -112zM1090 648h456q0 315 -214 315q-217 0 -242 -315z" />
    <glyph glyph-name="Ydieresis" horiz-adv-x="1276" 
d="M511 0v618l-494 862h240l384 -668l414 668h195l-529 -858v-622h-210zM349 1605v173h173v-173h-173zM744 1605v173h173v-173h-173z" />
    <glyph glyph-name="Ydieresis" unicode="&#x178;" horiz-adv-x="1276" 
d="M511 0v618l-494 862h240l384 -668l414 668h195l-529 -858v-622h-210zM349 1605v173h173v-173h-173zM744 1605v173h173v-173h-173z" />
    <glyph glyph-name="nonbreakingspace" unicode="&#xa0;" horiz-adv-x="647" 
 />
    <glyph glyph-name="exclamdown" unicode="&#xa1;" horiz-adv-x="648" 
d="M422 1086v-198h-197v198h197zM398 691l24 -790v-296h-197v296l25 790h148z" />
    <glyph glyph-name="cent" unicode="&#xa2;" horiz-adv-x="1295" 
d="M663 0v173q-203 20 -330.5 177t-127.5 388q0 236 120 382t338 175v185h99v-185q133 -6 284 -46v-166q-177 60 -284 70v-840q136 0 284 68v-150q-149 -58 -284 -58v-173h-99zM663 324v820q-242 -23 -242 -412q0 -330 242 -408z" />
    <glyph glyph-name="sterling" unicode="&#xa3;" horiz-adv-x="1295" 
d="M247 0v173q210 67 210 316v227h-179v148h179v215q0 213 101.5 325.5t291.5 112.5q104 0 227 -30v-167q-124 49 -239 49q-184 0 -184 -230v-275h216v-148h-216v-127q0 -158 -36 -245t-137 -171h611v-173h-845z" />
    <glyph glyph-name="currency" unicode="&#xa4;" horiz-adv-x="1296" 
d="M380 386l-195 -195l-87 87l195 195q-90 119 -90 267t90 267l-195 196l87 87l195 -195q125 89 267 89t267 -89l195 195l88 -87l-195 -196q89 -119 89 -267t-89 -267l195 -195l-88 -87l-195 195q-125 -90 -267 -90t-267 90zM643 444q128 0 214 85t86 212q0 124 -85.5 209.5
t-210.5 85.5t-210.5 -85.5t-85.5 -210.5q0 -123 85 -209.5t207 -86.5z" />
    <glyph glyph-name="yen" unicode="&#xa5;" horiz-adv-x="1295" 
d="M543 0v345h-296v124h296v148h-296v123h296l-463 740h233l360 -575l388 575h179l-500 -740h296v-123h-296v-148h296v-124h-296v-345h-197z" />
    <glyph glyph-name="brokenbar" unicode="&#xa6;" horiz-adv-x="765" 
d="M308 -296v740h148v-740h-148zM308 839v740h148v-740h-148z" />
    <glyph glyph-name="section" unicode="&#xa7;" horiz-adv-x="1295" 
d="M221 -260v180q242 -105 409 -105q131 0 211.5 49.5t80.5 130.5q0 67 -43 106t-187 101l-177 75q-289 124 -289 336q0 151 146 299q-141 94 -141 241q0 164 129 264t341 100q150 0 345 -47v-160q-202 59 -346 59q-130 0 -210 -51t-80 -134q0 -60 39 -99.5t136 -78.5
l136 -55q207 -83 286.5 -162.5t79.5 -203.5q0 -142 -149 -308q164 -95 164 -268q0 -157 -133.5 -250t-359.5 -93q-154 0 -388 74zM840 341q74 99 74 194q0 72 -47.5 118.5t-172.5 99.5l-222 93q-74 -90 -74 -185q0 -134 229 -230z" />
    <glyph glyph-name="dieresis" unicode="&#xa8;" horiz-adv-x="1258" 
d="M345 1283v173h173v-173h-173zM740 1283v173h173v-173h-173z" />
    <glyph glyph-name="copyright" unicode="&#xa9;" horiz-adv-x="1752" 
d="M867 -37q-315 0 -541.5 229.5t-226.5 547.5q0 322 228 549.5t549 227.5t549 -227.5t228 -547.5q0 -326 -228.5 -552.5t-557.5 -226.5zM867 74q326 0 518 239q157 195 157 428q0 231 -157 426q-192 239 -509 239t-509 -239q-157 -195 -157 -427q0 -272 194.5 -469
t462.5 -197zM1160 345q-141 -49 -255 -49q-189 0 -309.5 123t-120.5 316q0 202 117.5 322.5t313.5 120.5q94 0 228 -26l26 -5v-123q-136 56 -244 56q-132 0 -212.5 -94t-80.5 -248q0 -153 84 -242t227 -89q113 0 226 62v-124z" />
    <glyph glyph-name="ordfeminine" unicode="&#xaa;" horiz-adv-x="864" 
d="M512 1001q-98 -92 -198 -92q-84 0 -137.5 52t-53.5 132q0 106 87.5 165.5t245.5 59.5h47v69q0 108 -117 108q-100 0 -206 -58v110q119 47 232 47q235 0 235 -204v-294q0 -89 56 -89q9 0 23 3l7 -83q-49 -18 -94 -18q-99 0 -123 92h-4zM503 1081v151h-39q-197 0 -197 -120
q0 -94 95 -94q68 0 141 63z" />
    <glyph glyph-name="guillemotleft" unicode="&#xab;" horiz-adv-x="1073" 
d="M999 913l-296 -370l296 -370l-98 -74l-395 444l395 444zM604 913l-296 -370l296 -370l-98 -74l-395 444l395 444z" />
    <glyph glyph-name="logicalnot" unicode="&#xac;" horiz-adv-x="1629" 
d="M222 740v148h1184v-592h-148v444h-1036z" />
    <glyph glyph-name="uni00AD" unicode="&#xad;" horiz-adv-x="1111" 
d="M148 518v148h814v-148h-814z" />
    <glyph glyph-name="registered" unicode="&#xae;" horiz-adv-x="1752" 
d="M867 -37q-315 0 -541.5 229.5t-226.5 547.5q0 322 228 549.5t549 227.5t549 -227.5t228 -547.5q0 -326 -228.5 -552.5t-557.5 -226.5zM867 74q326 0 518 239q157 195 157 428q0 231 -157 426q-192 239 -509 239t-509 -239q-157 -195 -157 -427q0 -272 194.5 -469
t462.5 -197zM620 317v840h265q254 0 254 -206q0 -152 -147 -243l253 -391h-157l-227 350h-106v-350h-135zM746 772h39q222 0 222 166q0 132 -186 132h-75v-298z" />
    <glyph glyph-name="degree" unicode="&#xb0;" horiz-adv-x="567" 
d="M283 1073q-90 0 -154.5 65.5t-64.5 157.5q0 93 64.5 157t157.5 64t157.5 -64t64.5 -157q0 -94 -65 -158.5t-160 -64.5zM285 1172q51 0 87.5 36.5t36.5 86.5t-36.5 87t-86.5 37q-49 0 -86 -37t-37 -87q0 -49 36.5 -86t85.5 -37z" />
    <glyph glyph-name="plusminus" unicode="&#xb1;" horiz-adv-x="1629" 
d="M222 0v148h1184v-148h-1184zM740 296v370h-518v148h518v370h148v-370h518v-148h-518v-370h-148z" />
    <glyph glyph-name="twosuperior" unicode="&#xb2;" horiz-adv-x="864" 
d="M149 592v122q66 115 182 219l70 62q156 138 156 257q0 149 -163 149q-96 0 -223 -69v117q127 54 252 54q131 0 211 -68t80 -178q0 -140 -184 -290l-53 -44q-133 -109 -156 -209h389v-122h-561z" />
    <glyph glyph-name="threesuperior" unicode="&#xb3;" horiz-adv-x="864" 
d="M170 1353v112q110 38 226 38q282 0 282 -209q0 -157 -191 -223q220 -50 220 -238q0 -122 -86.5 -192.5t-236.5 -70.5q-107 0 -226 29v122q130 -51 209 -51q82 0 133 45t51 118q0 182 -260 182h-51v93h44q244 0 244 166q0 129 -156 129q-93 0 -202 -50z" />
    <glyph glyph-name="acute" unicode="&#xb4;" horiz-adv-x="1258" 
d="M395 1283l241 321h228l-321 -321h-148z" />
    <glyph glyph-name="mu" unicode="&#xb5;" horiz-adv-x="1283" 
d="M197 -395v1481h197v-716q0 -210 182 -210q165 0 312 222v704h197v-755q0 -185 59 -331h-216q-21 75 -40 204q-140 -229 -316 -229q-102 0 -178 50v-420h-197z" />
    <glyph glyph-name="paragraph" unicode="&#xb6;" horiz-adv-x="1295" 
d="M635 -296v1036q-197 14 -308 123.5t-111 290.5q0 177 96 251.5t323 74.5h395v-1776h-123v1653h-148v-1653h-124z" />
    <glyph glyph-name="cedilla" unicode="&#xb8;" horiz-adv-x="1258" 
d="M626 0h97l-60 -109q78 0 136 -47.5t58 -111.5q0 -69 -58.5 -116.5t-142.5 -47.5q-72 0 -146 21v81q46 -15 105 -15q103 0 103 74q0 96 -187 96z" />
    <glyph glyph-name="onesuperior" unicode="&#xb9;" horiz-adv-x="864" 
d="M185 592v111h222v648l-197 -49v114l345 87v-800h222v-111h-592z" />
    <glyph glyph-name="ordmasculine" unicode="&#xba;" horiz-adv-x="864" 
d="M444 909q-147 0 -234 93t-87 250q0 158 87.5 250t238.5 92q150 0 237.5 -92t87.5 -249q0 -161 -87.5 -252.5t-242.5 -91.5zM447 1009q170 0 170 244q0 241 -168 241q-169 0 -169 -242q0 -243 167 -243z" />
    <glyph glyph-name="guillemotright" unicode="&#xbb;" horiz-adv-x="1073" 
d="M74 173l296 370l-296 370l99 74l394 -444l-394 -444zM469 173l296 370l-296 370l98 74l395 -444l-395 -444z" />
    <glyph glyph-name="onequarter" unicode="&#xbc;" horiz-adv-x="1641" 
d="M273 592v759l-197 -49v114l345 87v-911h-148zM150 -37l1088 1554h135l-1087 -1554h-136zM1284 1v242h-407v114l403 532h140v-529h123v-117h-123v-242h-136zM1006 360h278v364z" />
    <glyph glyph-name="onehalf" unicode="&#xbd;" horiz-adv-x="1641" 
d="M273 592v759l-197 -49v114l345 87v-911h-148zM99 -37l1088 1554h135l-1087 -1554h-136zM978 1v122q66 115 182 219l70 62q156 138 156 257q0 149 -163 149q-96 0 -223 -69v117q127 54 252 54q131 0 211 -68t80 -178q0 -140 -184 -290l-53 -44q-133 -109 -156 -209h389
v-122h-561z" />
    <glyph glyph-name="threequarters" unicode="&#xbe;" horiz-adv-x="1641" 
d="M112 1353v112q110 38 226 38q282 0 282 -209q0 -157 -191 -223q220 -50 220 -238q0 -122 -86.5 -192.5t-236.5 -70.5q-107 0 -226 29v122q130 -51 209 -51q82 0 133 45t51 118q0 182 -260 182h-51v93h44q244 0 244 166q0 129 -156 129q-93 0 -202 -50zM248 -37l1088 1554
h135l-1087 -1554h-136zM1284 1v242h-407v114l403 532h140v-529h123v-117h-123v-242h-136zM1006 360h278v364z" />
    <glyph glyph-name="questiondown" unicode="&#xbf;" horiz-adv-x="864" 
d="M614 1086v-198h-198v198h198zM614 691v-55q0 -111 -30.5 -185.5t-116.5 -173.5l-64 -72q-156 -179 -156 -295q0 -89 69 -141.5t186 -52.5q151 0 325 75v-167q-186 -56 -347 -56q-204 0 -323.5 91.5t-119.5 246.5q0 89 34 152t133 156l61 59q93 89 122 147.5t29 159.5v111
h198z" />
    <glyph glyph-name="Agrave" unicode="&#xc0;" horiz-adv-x="1413" 
d="M17 0l587 1480h208l578 -1480h-227l-161 410h-627l-163 -410h-195zM436 566h505l-252 638zM857 1605h-148l-321 321h228z" />
    <glyph glyph-name="Aacute" unicode="&#xc1;" horiz-adv-x="1413" 
d="M17 0l587 1480h208l578 -1480h-227l-161 410h-627l-163 -410h-195zM436 566h505l-252 638zM561 1605l241 321h228l-321 -321h-148z" />
    <glyph glyph-name="Acircumflex" unicode="&#xc2;" horiz-adv-x="1413" 
d="M17 0l587 1480h208l578 -1480h-227l-161 410h-627l-163 -410h-195zM436 566h505l-252 638zM359 1605l241 321h218l241 -321h-148l-201 202h-2l-201 -202h-148z" />
    <glyph glyph-name="Atilde" unicode="&#xc3;" horiz-adv-x="1413" 
d="M17 0l587 1480h208l578 -1480h-227l-161 410h-627l-163 -410h-195zM436 566h505l-252 638zM370 1605q11 234 185 234q73 0 135 -38l60 -37q56 -35 86 -35q69 0 77 110h123q-11 -234 -185 -234q-73 0 -135 39l-60 37q-56 34 -86 34q-68 0 -77 -110h-123z" />
    <glyph glyph-name="Adieresis" unicode="&#xc4;" horiz-adv-x="1413" 
d="M17 0l587 1480h208l578 -1480h-227l-161 410h-627l-163 -410h-195zM436 566h505l-252 638zM421 1605v173h173v-173h-173zM816 1605v173h173v-173h-173z" />
    <glyph glyph-name="Aring" unicode="&#xc5;" horiz-adv-x="1413" 
d="M17 0l587 1480h208l578 -1480h-227l-161 410h-627l-163 -410h-195zM436 566h505l-252 638zM706 1482q-93 0 -158.5 66.5t-65.5 160.5t66 160.5t161 66.5q94 0 160.5 -66t66.5 -161q0 -96 -66.5 -161.5t-163.5 -65.5zM707 1568q60 0 101.5 41t41.5 101q0 58 -41.5 99
t-99.5 41q-59 0 -100 -41t-41 -100q0 -58 41 -99.5t98 -41.5z" />
    <glyph glyph-name="AE" unicode="&#xc6;" horiz-adv-x="1857" 
d="M18 0l861 1480h883v-157h-618v-475h518v-155h-518v-536h664v-157h-874v414h-483l-241 -414h-192zM540 569h394v671z" />
    <glyph glyph-name="Ccedilla" unicode="&#xc7;" horiz-adv-x="1417" 
d="M1303 76q-219 -113 -478 -113q-345 0 -533 202.5t-188 573.5q0 370 191.5 574t539.5 204q199 0 466 -65v-197q-304 105 -469 105q-241 0 -373 -163t-132 -460q0 -283 141 -446.5t385 -163.5q210 0 450 129v-180zM769 0h97l-60 -109q78 0 136 -47.5t58 -111.5
q0 -69 -58.5 -116.5t-142.5 -47.5q-72 0 -146 21v81q46 -15 105 -15q103 0 103 74q0 96 -187 96z" />
    <glyph glyph-name="Egrave" unicode="&#xc8;" horiz-adv-x="1110" 
d="M191 0v1480h827v-157h-617v-475h517v-155h-517v-536h660v-157h-870zM767 1605h-148l-321 321h228z" />
    <glyph glyph-name="Eacute" unicode="&#xc9;" horiz-adv-x="1110" 
d="M191 0v1480h827v-157h-617v-475h517v-155h-517v-536h660v-157h-870zM456 1605l241 321h228l-321 -321h-148z" />
    <glyph glyph-name="Ecircumflex" unicode="&#xca;" horiz-adv-x="1110" 
d="M191 0v1480h827v-157h-617v-475h517v-155h-517v-536h660v-157h-870zM266 1605l241 321h218l241 -321h-148l-201 202h-2l-201 -202h-148z" />
    <glyph glyph-name="Edieresis" unicode="&#xcb;" horiz-adv-x="1110" 
d="M191 0v1480h827v-157h-617v-475h517v-155h-517v-536h660v-157h-870zM344 1605v173h173v-173h-173zM739 1605v173h173v-173h-173z" />
    <glyph glyph-name="Igrave" unicode="&#xcc;" horiz-adv-x="590" 
d="M190 0v1480h210v-1480h-210zM443 1605h-148l-321 321h228z" />
    <glyph glyph-name="Iacute" unicode="&#xcd;" horiz-adv-x="590" 
d="M190 0v1480h210v-1480h-210zM148 1605l241 321h228l-321 -321h-148z" />
    <glyph glyph-name="Icircumflex" unicode="&#xce;" horiz-adv-x="590" 
d="M190 0v1480h210v-1480h-210zM-54 1605l241 321h218l241 -321h-148l-201 202h-2l-201 -202h-148z" />
    <glyph glyph-name="Idieresis" unicode="&#xcf;" horiz-adv-x="590" 
d="M190 0v1480h210v-1480h-210zM12 1605v173h173v-173h-173zM407 1605v173h173v-173h-173z" />
    <glyph glyph-name="Eth" unicode="&#xd0;" horiz-adv-x="1553" 
d="M210 0v688h-173v148h173v644h492q221 0 356 -49t234 -166q157 -186 157 -490q0 -343 -184 -556q-188 -219 -560 -219h-495zM420 157h269q289 0 408 155q129 165 129 443q0 261 -127 410q-77 91 -184 124.5t-322 33.5h-173v-487h333v-148h-333v-531z" />
    <glyph glyph-name="Ntilde" unicode="&#xd1;" horiz-adv-x="1513" 
d="M191 0v1480h206l745 -1143v1143h180v-1480h-205l-746 1143v-1143h-180zM448 1605q11 234 185 234q73 0 135 -38l60 -37q56 -35 86 -35q69 0 77 110h123q-11 -234 -185 -234q-73 0 -135 39l-60 37q-56 34 -86 34q-68 0 -77 -110h-123z" />
    <glyph glyph-name="Ograve" unicode="&#xd2;" horiz-adv-x="1591" 
d="M787 -37q-308 0 -495.5 213.5t-187.5 564.5q0 353 188.5 564.5t503.5 211.5q314 0 503 -211t189 -563q0 -359 -189 -569.5t-512 -210.5zM790 120q227 0 351 163.5t124 461.5q0 289 -124.5 452t-344.5 163q-221 0 -345 -163.5t-124 -454.5q0 -290 123 -456t340 -166z
M944 1605h-148l-321 321h228z" />
    <glyph glyph-name="Oacute" unicode="&#xd3;" horiz-adv-x="1591" 
d="M787 -37q-308 0 -495.5 213.5t-187.5 564.5q0 353 188.5 564.5t503.5 211.5q314 0 503 -211t189 -563q0 -359 -189 -569.5t-512 -210.5zM790 120q227 0 351 163.5t124 461.5q0 289 -124.5 452t-344.5 163q-221 0 -345 -163.5t-124 -454.5q0 -290 123 -456t340 -166z
M649 1605l241 321h228l-321 -321h-148z" />
    <glyph glyph-name="Ocircumflex" unicode="&#xd4;" horiz-adv-x="1591" 
d="M787 -37q-308 0 -495.5 213.5t-187.5 564.5q0 353 188.5 564.5t503.5 211.5q314 0 503 -211t189 -563q0 -359 -189 -569.5t-512 -210.5zM790 120q227 0 351 163.5t124 461.5q0 289 -124.5 452t-344.5 163q-221 0 -345 -163.5t-124 -454.5q0 -290 123 -456t340 -166z
M447 1605l241 321h218l241 -321h-148l-201 202h-2l-201 -202h-148z" />
    <glyph glyph-name="Otilde" unicode="&#xd5;" horiz-adv-x="1591" 
d="M787 -37q-308 0 -495.5 213.5t-187.5 564.5q0 353 188.5 564.5t503.5 211.5q314 0 503 -211t189 -563q0 -359 -189 -569.5t-512 -210.5zM790 120q227 0 351 163.5t124 461.5q0 289 -124.5 452t-344.5 163q-221 0 -345 -163.5t-124 -454.5q0 -290 123 -456t340 -166z
M464 1605q11 234 185 234q73 0 135 -38l60 -37q56 -35 86 -35q69 0 77 110h123q-11 -234 -185 -234q-73 0 -135 39l-60 37q-56 34 -86 34q-68 0 -77 -110h-123z" />
    <glyph glyph-name="Odieresis" unicode="&#xd6;" horiz-adv-x="1591" 
d="M787 -37q-308 0 -495.5 213.5t-187.5 564.5q0 353 188.5 564.5t503.5 211.5q314 0 503 -211t189 -563q0 -359 -189 -569.5t-512 -210.5zM790 120q227 0 351 163.5t124 461.5q0 289 -124.5 452t-344.5 163q-221 0 -345 -163.5t-124 -454.5q0 -290 123 -456t340 -166z
M513 1605v173h173v-173h-173zM908 1605v173h173v-173h-173z" />
    <glyph glyph-name="multiply" unicode="&#xd7;" horiz-adv-x="1628" 
d="M222 105l487 487l-487 488l105 104l487 -487l488 487l104 -104l-487 -488l487 -487l-104 -105l-488 487l-487 -487z" />
    <glyph glyph-name="Oslash" unicode="&#xd8;" horiz-adv-x="1591" 
d="M1097 1247q-119 113 -302 113q-220 0 -344 -163.5t-124 -454.5q0 -233 83 -393zM495 234q119 -114 303 -114q219 0 343 164.5t124 454.5q0 235 -83 393zM115 -37l169 221q-180 217 -180 557q0 353 188.5 564.5t502.5 211.5q237 0 413 -126l97 126h172l-169 -220
q180 -216 180 -559q0 -351 -188.5 -563t-500.5 -212q-245 0 -415 126l-96 -126h-173z" />
    <glyph glyph-name="Ugrave" unicode="&#xd9;" horiz-adv-x="1419" 
d="M179 1480h210v-934q0 -223 82.5 -324.5t262.5 -101.5q176 0 249.5 95.5t73.5 323.5v941h184v-938q0 -194 -38 -298t-137 -183q-124 -98 -346 -98q-277 0 -409 143t-132 442v932zM870 1605h-148l-321 321h228z" />
    <glyph glyph-name="Uacute" unicode="&#xda;" horiz-adv-x="1419" 
d="M179 1480h210v-934q0 -223 82.5 -324.5t262.5 -101.5q176 0 249.5 95.5t73.5 323.5v941h184v-938q0 -194 -38 -298t-137 -183q-124 -98 -346 -98q-277 0 -409 143t-132 442v932zM575 1605l241 321h228l-321 -321h-148z" />
    <glyph glyph-name="Ucircumflex" unicode="&#xdb;" horiz-adv-x="1419" 
d="M179 1480h210v-934q0 -223 82.5 -324.5t262.5 -101.5q176 0 249.5 95.5t73.5 323.5v941h184v-938q0 -194 -38 -298t-137 -183q-124 -98 -346 -98q-277 0 -409 143t-132 442v932zM373 1605l241 321h218l241 -321h-148l-201 202h-2l-201 -202h-148z" />
    <glyph glyph-name="Udieresis" unicode="&#xdc;" horiz-adv-x="1419" 
d="M179 1480h210v-934q0 -223 82.5 -324.5t262.5 -101.5q176 0 249.5 95.5t73.5 323.5v941h184v-938q0 -194 -38 -298t-137 -183q-124 -98 -346 -98q-277 0 -409 143t-132 442v932zM427 1605v173h173v-173h-173zM822 1605v173h173v-173h-173z" />
    <glyph glyph-name="Yacute" unicode="&#xdd;" horiz-adv-x="1276" 
d="M511 0v618l-494 862h240l384 -668l414 668h195l-529 -858v-622h-210zM493 1605l241 321h228l-321 -321h-148z" />
    <glyph glyph-name="Thorn" unicode="&#xde;" horiz-adv-x="1132" 
d="M191 0v1480h208v-293h195q268 0 385 -91t117 -297q0 -237 -160 -370.5t-444 -133.5h-93v-295h-208zM399 449h109q175 0 271 87t96 246q0 133 -80 190t-267 57h-129v-580z" />
    <glyph glyph-name="germandbls" unicode="&#xdf;" horiz-adv-x="1225" 
d="M197 0v1151q0 248 84 350.5t286 102.5q163 0 262 -72.5t99 -191.5q0 -122 -131 -295q-77 -101 -77 -142q0 -60 110 -154l161 -136q173 -146 173 -314q0 -150 -94 -237t-256 -87q-139 0 -280 58v169q183 -79 283 -79q73 0 117 43t44 115q0 86 -115 184l-191 164
q-125 108 -125 219q0 84 100 238q83 127 83 218q0 152 -170 152q-166 0 -166 -222v-1234h-197z" />
    <glyph glyph-name="agrave" unicode="&#xe0;" horiz-adv-x="1131" 
d="M757 138q-177 -163 -341 -163q-135 0 -224 84.5t-89 213.5q0 178 149.5 273.5t429.5 95.5h46v131q0 189 -194 189q-156 0 -337 -96v163q199 81 373 81q182 0 268.5 -82t86.5 -255v-492q0 -169 104 -169q13 0 38 4l14 -109q-67 -32 -148 -32q-138 0 -176 163zM728 245v281
l-66 2q-162 0 -262 -61.5t-100 -161.5q0 -71 50 -120t122 -49q123 0 256 109zM724 1283h-148l-321 321h228z" />
    <glyph glyph-name="aacute" unicode="&#xe1;" horiz-adv-x="1131" 
d="M757 138q-177 -163 -341 -163q-135 0 -224 84.5t-89 213.5q0 178 149.5 273.5t429.5 95.5h46v131q0 189 -194 189q-156 0 -337 -96v163q199 81 373 81q182 0 268.5 -82t86.5 -255v-492q0 -169 104 -169q13 0 38 4l14 -109q-67 -32 -148 -32q-138 0 -176 163zM728 245v281
l-66 2q-162 0 -262 -61.5t-100 -161.5q0 -71 50 -120t122 -49q123 0 256 109zM426 1283l241 321h228l-321 -321h-148z" />
    <glyph glyph-name="acircumflex" unicode="&#xe2;" horiz-adv-x="1131" 
d="M757 138q-177 -163 -341 -163q-135 0 -224 84.5t-89 213.5q0 178 149.5 273.5t429.5 95.5h46v131q0 189 -194 189q-156 0 -337 -96v163q199 81 373 81q182 0 268.5 -82t86.5 -255v-492q0 -169 104 -169q13 0 38 4l14 -109q-67 -32 -148 -32q-138 0 -176 163zM728 245v281
l-66 2q-162 0 -262 -61.5t-100 -161.5q0 -71 50 -120t122 -49q123 0 256 109zM221 1283l241 321h218l241 -321h-148l-201 202h-2l-201 -202h-148z" />
    <glyph glyph-name="atilde" unicode="&#xe3;" horiz-adv-x="1131" 
d="M757 138q-177 -163 -341 -163q-135 0 -224 84.5t-89 213.5q0 178 149.5 273.5t429.5 95.5h46v131q0 189 -194 189q-156 0 -337 -96v163q199 81 373 81q182 0 268.5 -82t86.5 -255v-492q0 -169 104 -169q13 0 38 4l14 -109q-67 -32 -148 -32q-138 0 -176 163zM728 245v281
l-66 2q-162 0 -262 -61.5t-100 -161.5q0 -71 50 -120t122 -49q123 0 256 109zM236 1283q11 234 185 234q73 0 135 -38l60 -37q56 -35 86 -35q69 0 77 110h123q-11 -234 -185 -234q-73 0 -135 39l-60 37q-56 34 -86 34q-68 0 -77 -110h-123z" />
    <glyph glyph-name="adieresis" unicode="&#xe4;" horiz-adv-x="1131" 
d="M757 138q-177 -163 -341 -163q-135 0 -224 84.5t-89 213.5q0 178 149.5 273.5t429.5 95.5h46v131q0 189 -194 189q-156 0 -337 -96v163q199 81 373 81q182 0 268.5 -82t86.5 -255v-492q0 -169 104 -169q13 0 38 4l14 -109q-67 -32 -148 -32q-138 0 -176 163zM728 245v281
l-66 2q-162 0 -262 -61.5t-100 -161.5q0 -71 50 -120t122 -49q123 0 256 109zM285 1283v173h173v-173h-173zM680 1283v173h173v-173h-173z" />
    <glyph glyph-name="aring" unicode="&#xe5;" horiz-adv-x="1131" 
d="M757 138q-177 -163 -341 -163q-135 0 -224 84.5t-89 213.5q0 178 149.5 273.5t429.5 95.5h46v131q0 189 -194 189q-156 0 -337 -96v163q199 81 373 81q182 0 268.5 -82t86.5 -255v-492q0 -169 104 -169q13 0 38 4l14 -109q-67 -32 -148 -32q-138 0 -176 163zM728 245v281
l-66 2q-162 0 -262 -61.5t-100 -161.5q0 -71 50 -120t122 -49q123 0 256 109zM566 1283q-93 0 -158.5 66.5t-65.5 160.5t66 160.5t161 66.5q94 0 160.5 -66t66.5 -161q0 -96 -66.5 -161.5t-163.5 -65.5zM567 1369q60 0 101.5 41t41.5 101q0 58 -41.5 99t-99.5 41
q-59 0 -100 -41t-41 -100q0 -58 41 -99.5t98 -41.5z" />
    <glyph glyph-name="ae" unicode="&#xe6;" horiz-adv-x="1743" 
d="M809 193q-190 -218 -393 -218q-135 0 -224 84.5t-89 213.5q0 178 149.5 273.5t429.5 95.5h46v131q0 189 -194 189q-156 0 -337 -96v163q199 81 373 81q195 0 307 -121q123 121 303 121q418 0 418 -598h-672q28 -389 365 -389q140 0 307 71v-157q-193 -62 -359 -62
q-285 0 -430 218zM728 245v281l-66 2q-162 0 -262 -61.5t-100 -161.5q0 -71 50 -120t122 -49q123 0 256 109zM932 648h456q0 315 -214 315q-217 0 -242 -315z" />
    <glyph glyph-name="ccedilla" unicode="&#xe7;" horiz-adv-x="1049" 
d="M951 33q-191 -58 -330 -58q-220 0 -365 163t-145 411q0 265 143.5 413t400.5 148q127 0 284 -35v-165q-167 49 -272 49q-151 0 -242.5 -113.5t-91.5 -302.5q0 -183 94 -296t246 -113q135 0 278 69v-170zM594 0h97l-60 -109q78 0 136 -47.5t58 -111.5q0 -69 -58.5 -116.5
t-142.5 -47.5q-72 0 -146 21v81q46 -15 105 -15q103 0 103 74q0 96 -187 96z" />
    <glyph glyph-name="egrave" unicode="&#xe8;" horiz-adv-x="1141" 
d="M993 35q-198 -60 -339 -60q-240 0 -391.5 159.5t-151.5 413.5q0 247 133.5 405t341.5 158q197 0 304.5 -140t107.5 -398l-1 -61h-685q43 -387 379 -387q123 0 302 66v-156zM321 660h479q0 303 -226 303q-227 0 -253 -303zM718 1283h-148l-321 321h228z" />
    <glyph glyph-name="eacute" unicode="&#xe9;" horiz-adv-x="1141" 
d="M993 35q-198 -60 -339 -60q-240 0 -391.5 159.5t-151.5 413.5q0 247 133.5 405t341.5 158q197 0 304.5 -140t107.5 -398l-1 -61h-685q43 -387 379 -387q123 0 302 66v-156zM321 660h479q0 303 -226 303q-227 0 -253 -303zM422 1283l241 321h228l-321 -321h-148z" />
    <glyph glyph-name="ecircumflex" unicode="&#xea;" horiz-adv-x="1141" 
d="M993 35q-198 -60 -339 -60q-240 0 -391.5 159.5t-151.5 413.5q0 247 133.5 405t341.5 158q197 0 304.5 -140t107.5 -398l-1 -61h-685q43 -387 379 -387q123 0 302 66v-156zM321 660h479q0 303 -226 303q-227 0 -253 -303zM237 1283l241 321h218l241 -321h-148l-201 202
h-2l-201 -202h-148z" />
    <glyph glyph-name="edieresis" unicode="&#xeb;" horiz-adv-x="1141" 
d="M993 35q-198 -60 -339 -60q-240 0 -391.5 159.5t-151.5 413.5q0 247 133.5 405t341.5 158q197 0 304.5 -140t107.5 -398l-1 -61h-685q43 -387 379 -387q123 0 302 66v-156zM321 660h479q0 303 -226 303q-227 0 -253 -303zM309 1283v173h173v-173h-173zM704 1283v173h173
v-173h-173z" />
    <glyph glyph-name="igrave" unicode="&#xec;" horiz-adv-x="592" 
d="M197 0v1086h197v-1086h-197zM445 1283h-148l-321 321h228z" />
    <glyph glyph-name="iacute" unicode="&#xed;" horiz-adv-x="592" 
d="M197 0v1086h197v-1086h-197zM148 1283l241 321h228l-321 -321h-148z" />
    <glyph glyph-name="icircumflex" unicode="&#xee;" horiz-adv-x="592" 
d="M197 0v1086h197v-1086h-197zM-54 1283l241 321h218l241 -321h-148l-201 202h-2l-201 -202h-148z" />
    <glyph glyph-name="idieresis" unicode="&#xef;" horiz-adv-x="592" 
d="M197 0v1086h197v-1086h-197zM12 1283v173h173v-173h-173zM407 1283v173h173v-173h-173z" />
    <glyph glyph-name="eth" unicode="&#xf0;" horiz-adv-x="1234" 
d="M110 1579q221 0 397 -76l169 169l87 -87l-143 -143q240 -159 371 -384.5t131 -481.5q0 -271 -139 -436t-368 -165q-227 0 -366.5 155t-139.5 408q0 244 138 397t358 153q62 0 137 -21q-80 145 -247 250l-168 -168l-87 87l144 144q-117 51 -274 51v148zM616 123
q144 0 225.5 113t81.5 312q0 395 -299 395q-143 0 -224 -108t-81 -298q0 -189 80.5 -301.5t216.5 -112.5z" />
    <glyph glyph-name="ntilde" unicode="&#xf1;" horiz-adv-x="1271" 
d="M197 0v1086h197v-204q156 228 382 228q141 0 225 -89.5t84 -240.5v-780h-197v716q0 121 -35.5 172.5t-117.5 51.5q-181 0 -341 -237v-703h-197zM333 1283q11 234 185 234q73 0 135 -38l60 -37q56 -35 86 -35q69 0 77 110h123q-11 -234 -185 -234q-73 0 -135 39l-60 37
q-56 34 -86 34q-68 0 -77 -110h-123z" />
    <glyph glyph-name="ograve" unicode="&#xf2;" horiz-adv-x="1258" 
d="M622 -25q-233 0 -372 154.5t-139 413.5q0 262 139.5 414.5t378.5 152.5t378.5 -152.5t139.5 -412.5q0 -266 -140 -418t-385 -152zM625 123q313 0 313 422q0 417 -309 417q-308 0 -308 -419q0 -199 80 -309.5t224 -110.5zM779 1283h-148l-321 321h228z" />
    <glyph glyph-name="oacute" unicode="&#xf3;" horiz-adv-x="1258" 
d="M622 -25q-233 0 -372 154.5t-139 413.5q0 262 139.5 414.5t378.5 152.5t378.5 -152.5t139.5 -412.5q0 -266 -140 -418t-385 -152zM625 123q313 0 313 422q0 417 -309 417q-308 0 -308 -419q0 -199 80 -309.5t224 -110.5zM481 1283l241 321h228l-321 -321h-148z" />
    <glyph glyph-name="ocircumflex" unicode="&#xf4;" horiz-adv-x="1258" 
d="M622 -25q-233 0 -372 154.5t-139 413.5q0 262 139.5 414.5t378.5 152.5t378.5 -152.5t139.5 -412.5q0 -266 -140 -418t-385 -152zM625 123q313 0 313 422q0 417 -309 417q-308 0 -308 -419q0 -199 80 -309.5t224 -110.5zM279 1283l241 321h218l241 -321h-148l-201 202h-2
l-201 -202h-148z" />
    <glyph glyph-name="otilde" unicode="&#xf5;" horiz-adv-x="1258" 
d="M622 -25q-233 0 -372 154.5t-139 413.5q0 262 139.5 414.5t378.5 152.5t378.5 -152.5t139.5 -412.5q0 -266 -140 -418t-385 -152zM625 123q313 0 313 422q0 417 -309 417q-308 0 -308 -419q0 -199 80 -309.5t224 -110.5zM296 1283q11 234 185 234q73 0 135 -38l60 -37
q56 -35 86 -35q69 0 77 110h123q-11 -234 -185 -234q-73 0 -135 39l-60 37q-56 34 -86 34q-68 0 -77 -110h-123z" />
    <glyph glyph-name="odieresis" unicode="&#xf6;" horiz-adv-x="1258" 
d="M622 -25q-233 0 -372 154.5t-139 413.5q0 262 139.5 414.5t378.5 152.5t378.5 -152.5t139.5 -412.5q0 -266 -140 -418t-385 -152zM625 123q313 0 313 422q0 417 -309 417q-308 0 -308 -419q0 -199 80 -309.5t224 -110.5zM345 1283v173h173v-173h-173zM740 1283v173h173
v-173h-173z" />
    <glyph glyph-name="divide" unicode="&#xf7;" horiz-adv-x="1629" 
d="M222 518v148h1184v-148h-1184zM691 938v246h247v-246h-247zM691 0v247h247v-247h-247z" />
    <glyph glyph-name="oslash" unicode="&#xf8;" horiz-adv-x="1258" 
d="M111 -25l130 166l-3 3q-127 146 -127 396q0 264 139 417t379 153q178 0 304 -85l68 85h146l-129 -165l2 -4q127 -159 127 -397q0 -262 -139 -415.5t-378 -153.5q-174 0 -304 85l-67 -85h-148zM895 787l-463 -591q77 -73 195 -73q147 0 229 109.5t82 305.5q0 136 -43 249z
M364 298l463 590q-81 74 -196 74q-147 0 -228.5 -109.5t-81.5 -305.5q0 -145 43 -249z" />
    <glyph glyph-name="ugrave" unicode="&#xf9;" horiz-adv-x="1271" 
d="M876 0v204q-157 -229 -381 -229q-142 0 -226 89.5t-84 241.5v780h197v-716q0 -122 35.5 -173.5t118.5 -51.5q180 0 340 237v704h197v-1086h-197zM779 1283h-148l-321 321h228z" />
    <glyph glyph-name="uacute" unicode="&#xfa;" horiz-adv-x="1271" 
d="M876 0v204q-157 -229 -381 -229q-142 0 -226 89.5t-84 241.5v780h197v-716q0 -122 35.5 -173.5t118.5 -51.5q180 0 340 237v704h197v-1086h-197zM481 1283l241 321h228l-321 -321h-148z" />
    <glyph glyph-name="ucircumflex" unicode="&#xfb;" horiz-adv-x="1271" 
d="M876 0v204q-157 -229 -381 -229q-142 0 -226 89.5t-84 241.5v780h197v-716q0 -122 35.5 -173.5t118.5 -51.5q180 0 340 237v704h197v-1086h-197zM279 1283l241 321h218l241 -321h-148l-201 202h-2l-201 -202h-148z" />
    <glyph glyph-name="udieresis" unicode="&#xfc;" horiz-adv-x="1271" 
d="M876 0v204q-157 -229 -381 -229q-142 0 -226 89.5t-84 241.5v780h197v-716q0 -122 35.5 -173.5t118.5 -51.5q180 0 340 237v704h197v-1086h-197zM345 1283v173h173v-173h-173zM740 1283v173h173v-173h-173z" />
    <glyph glyph-name="yacute" unicode="&#xfd;" horiz-adv-x="1070" 
d="M260 -395l176 395l-420 1086h213l311 -818l332 818h186l-593 -1481h-205zM394 1283l241 321h228l-321 -321h-148z" />
    <glyph glyph-name="thorn" unicode="&#xfe;" horiz-adv-x="1289" 
d="M197 -395v1974h197v-697q121 228 363 228q196 0 308.5 -143t112.5 -391q0 -270 -127.5 -435.5t-335.5 -165.5q-193 0 -321 148v-518h-197zM394 259q152 -136 290 -136q136 0 210 113.5t74 319.5q0 382 -252 382q-165 0 -322 -179v-500z" />
    <glyph glyph-name="ydieresis" unicode="&#xff;" horiz-adv-x="1070" 
d="M260 -395l176 395l-420 1086h213l311 -818l332 818h186l-593 -1481h-205zM266 1283v173h173v-173h-173zM661 1283v173h173v-173h-173z" />
    <glyph glyph-name="Amacron" unicode="&#x100;" horiz-adv-x="1413" 
d="M17 0l587 1480h208l578 -1480h-227l-161 410h-627l-163 -410h-195zM436 566h505l-252 638zM388 1605v148h642v-148h-642z" />
    <glyph glyph-name="amacron" unicode="&#x101;" horiz-adv-x="1131" 
d="M757 138q-177 -163 -341 -163q-135 0 -224 84.5t-89 213.5q0 178 149.5 273.5t429.5 95.5h46v131q0 189 -194 189q-156 0 -337 -96v163q199 81 373 81q182 0 268.5 -82t86.5 -255v-492q0 -169 104 -169q13 0 38 4l14 -109q-67 -32 -148 -32q-138 0 -176 163zM728 245v281
l-66 2q-162 0 -262 -61.5t-100 -161.5q0 -71 50 -120t122 -49q123 0 256 109zM227 1283v148h642v-148h-642z" />
    <glyph glyph-name="Abreve" unicode="&#x102;" horiz-adv-x="1413" 
d="M17 0l587 1480h208l578 -1480h-227l-161 410h-627l-163 -410h-195zM436 566h505l-252 638zM370 1901h123q32 -148 210 -148t210 148h123q-15 -134 -106 -215t-227 -81t-226.5 80.5t-106.5 215.5z" />
    <glyph glyph-name="abreve" unicode="&#x103;" horiz-adv-x="1131" 
d="M757 138q-177 -163 -341 -163q-135 0 -224 84.5t-89 213.5q0 178 149.5 273.5t429.5 95.5h46v131q0 189 -194 189q-156 0 -337 -96v163q199 81 373 81q182 0 268.5 -82t86.5 -255v-492q0 -169 104 -169q13 0 38 4l14 -109q-67 -32 -148 -32q-138 0 -176 163zM728 245v281
l-66 2q-162 0 -262 -61.5t-100 -161.5q0 -71 50 -120t122 -49q123 0 256 109zM260 1579h123q32 -148 210 -148t210 148h123q-15 -134 -106 -215t-227 -81t-226.5 80.5t-106.5 215.5z" />
    <glyph glyph-name="Aogonek" unicode="&#x104;" horiz-adv-x="1413" 
d="M17 0l587 1480h208l578 -1480h-227l-161 410h-627l-163 -410h-195zM436 566h505l-252 638zM1164 0h107q-129 -77 -129 -180q0 -95 115 -95q56 0 91 15v-81q-60 -29 -138 -29q-204 0 -204 159q0 125 158 211z" />
    <glyph glyph-name="aogonek" unicode="&#x105;" horiz-adv-x="1131" 
d="M757 138q-177 -163 -341 -163q-135 0 -224 84.5t-89 213.5q0 178 149.5 273.5t429.5 95.5h46v131q0 189 -194 189q-156 0 -337 -96v163q199 81 373 81q182 0 268.5 -82t86.5 -255v-492q0 -169 104 -169q13 0 38 4l14 -109q-67 -32 -148 -32q-138 0 -176 163zM728 245v281
l-66 2q-162 0 -262 -61.5t-100 -161.5q0 -71 50 -120t122 -49q123 0 256 109zM865 0h107q-129 -77 -129 -180q0 -95 115 -95q56 0 91 15v-81q-60 -29 -138 -29q-204 0 -204 159q0 125 158 211z" />
    <glyph glyph-name="Cacute" unicode="&#x106;" horiz-adv-x="1417" 
d="M1303 76q-219 -113 -478 -113q-345 0 -533 202.5t-188 573.5q0 370 191.5 574t539.5 204q199 0 466 -65v-197q-304 105 -469 105q-241 0 -373 -163t-132 -460q0 -283 141 -446.5t385 -163.5q210 0 450 129v-180zM653 1605l241 321h228l-321 -321h-148z" />
    <glyph glyph-name="cacute" unicode="&#x107;" horiz-adv-x="1049" 
d="M951 33q-191 -58 -330 -58q-220 0 -365 163t-145 411q0 265 143.5 413t400.5 148q127 0 284 -35v-165q-167 49 -272 49q-151 0 -242.5 -113.5t-91.5 -302.5q0 -183 94 -296t246 -113q135 0 278 69v-170zM444 1283l241 321h228l-321 -321h-148z" />
    <glyph glyph-name="Ccaron" unicode="&#x10c;" horiz-adv-x="1417" 
d="M1303 76q-219 -113 -478 -113q-345 0 -533 202.5t-188 573.5q0 370 191.5 574t539.5 204q199 0 466 -65v-197q-304 105 -469 105q-241 0 -373 -163t-132 -460q0 -283 141 -446.5t385 -163.5q210 0 450 129v-180zM1176 1926l-241 -321h-218l-241 321h148l201 -202h2
l201 202h148z" />
    <glyph glyph-name="ccaron" unicode="&#x10d;" horiz-adv-x="1049" 
d="M951 33q-191 -58 -330 -58q-220 0 -365 163t-145 411q0 265 143.5 413t400.5 148q127 0 284 -35v-165q-167 49 -272 49q-151 0 -242.5 -113.5t-91.5 -302.5q0 -183 94 -296t246 -113q135 0 278 69v-170zM968 1604l-241 -321h-218l-241 321h148l201 -202h2l201 202h148z
" />
    <glyph glyph-name="Dcaron" unicode="&#x10e;" horiz-adv-x="1534" 
d="M191 0v1480h492q220 0 355.5 -49t234.5 -166q157 -186 157 -490q0 -369 -195 -572t-549 -203h-495zM401 157h269q288 0 408 155q129 165 129 443q0 261 -127 410q-77 91 -184 124.5t-322 33.5h-173v-1166zM1098 1926l-241 -321h-218l-241 321h148l201 -202h2l201 202h148
z" />
    <glyph glyph-name="dcaron" unicode="&#x10f;" horiz-adv-x="1474" 
d="M894 0v204q-120 -229 -362 -229q-196 0 -308.5 143t-112.5 391q0 271 127.5 436t335.5 165q193 0 320 -148v617h198v-1579h-198zM894 827q-153 135 -290 135q-135 0 -209 -113t-74 -320q0 -381 252 -381q164 0 321 179v500zM1264 1125v59q76 21 76 181v17h-76v197h197
v-171q0 -263 -197 -283z" />
    <glyph glyph-name="Dcroat" unicode="&#x110;" horiz-adv-x="1552" 
d="M210 0v688h-173v148h173v644h492q221 0 356 -49t234 -166q157 -186 157 -490q0 -343 -184 -556q-188 -219 -560 -219h-495zM420 157h269q289 0 408 155q129 165 129 443q0 261 -127 410q-77 91 -184 124.5t-322 33.5h-173v-487h333v-148h-333v-531z" />
    <glyph glyph-name="dcroat" unicode="&#x111;" horiz-adv-x="1289" 
d="M894 0v204q-120 -229 -362 -229q-196 0 -308.5 143.5t-112.5 392.5q0 261 126.5 418t337.5 157q192 0 319 -148v320h-320v124h320v197h198v-197h173v-124h-173v-1258h-198zM894 814q-135 124 -288 124q-285 0 -285 -407q0 -383 252 -383q164 0 321 179v487z" />
    <glyph glyph-name="Emacron" unicode="&#x112;" horiz-adv-x="1110" 
d="M191 0v1480h827v-157h-617v-475h517v-155h-517v-536h660v-157h-870zM314 1605v148h642v-148h-642z" />
    <glyph glyph-name="emacron" unicode="&#x113;" horiz-adv-x="1141" 
d="M993 35q-198 -60 -339 -60q-240 0 -391.5 159.5t-151.5 413.5q0 247 133.5 405t341.5 158q197 0 304.5 -140t107.5 -398l-1 -61h-685q43 -387 379 -387q123 0 302 66v-156zM321 660h479q0 303 -226 303q-227 0 -253 -303zM272 1283v148h642v-148h-642z" />
    <glyph glyph-name="Edotaccent" unicode="&#x116;" horiz-adv-x="1110" 
d="M191 0v1480h827v-157h-617v-475h517v-155h-517v-536h660v-157h-870zM521 1605v197h197v-197h-197z" />
    <glyph glyph-name="edotaccent" unicode="&#x117;" horiz-adv-x="1141" 
d="M993 35q-198 -60 -339 -60q-240 0 -391.5 159.5t-151.5 413.5q0 247 133.5 405t341.5 158q197 0 304.5 -140t107.5 -398l-1 -61h-685q43 -387 379 -387q123 0 302 66v-156zM321 660h479q0 303 -226 303q-227 0 -253 -303zM482 1283v197h197v-197h-197z" />
    <glyph glyph-name="Eogonek" unicode="&#x118;" horiz-adv-x="1110" 
d="M191 0v1480h827v-157h-617v-475h517v-155h-517v-536h660v-157h-870zM840 0h107q-129 -77 -129 -180q0 -95 115 -95q56 0 91 15v-81q-60 -29 -138 -29q-204 0 -204 159q0 125 158 211z" />
    <glyph glyph-name="eogonek" unicode="&#x119;" horiz-adv-x="1141" 
d="M993 35q-198 -60 -339 -60q-240 0 -391.5 159.5t-151.5 413.5q0 247 133.5 405t341.5 158q197 0 304.5 -140t107.5 -398l-1 -61h-685q43 -387 379 -387q123 0 302 66v-156zM321 660h479q0 303 -226 303q-227 0 -253 -303zM693 0h107q-129 -77 -129 -180q0 -95 115 -95
q56 0 91 15v-81q-60 -29 -138 -29q-204 0 -204 159q0 125 158 211z" />
    <glyph glyph-name="Ecaron" unicode="&#x11a;" horiz-adv-x="1110" 
d="M191 0v1480h827v-157h-617v-475h517v-155h-517v-536h660v-157h-870zM976 1926l-241 -321h-218l-241 321h148l201 -202h2l201 202h148z" />
    <glyph glyph-name="ecaron" unicode="&#x11b;" horiz-adv-x="1141" 
d="M993 35q-198 -60 -339 -60q-240 0 -391.5 159.5t-151.5 413.5q0 247 133.5 405t341.5 158q197 0 304.5 -140t107.5 -398l-1 -61h-685q43 -387 379 -387q123 0 302 66v-156zM321 660h479q0 303 -226 303q-227 0 -253 -303zM921 1604l-241 -321h-218l-241 321h148l201 -202
h2l201 202h148z" />
    <glyph glyph-name="Gbreve" unicode="&#x11e;" horiz-adv-x="1480" 
d="M1303 40q-269 -77 -469 -77q-353 0 -541.5 201t-188.5 576q0 368 191 572.5t536 204.5q226 0 470 -67v-194q-306 104 -469 104q-240 0 -372.5 -163t-132.5 -459q0 -293 142 -455.5t398 -162.5q105 0 227 37v482h209v-599zM468 1901h123q32 -148 210 -148t210 148h123
q-15 -134 -106 -215t-227 -81t-226.5 80.5t-106.5 215.5z" />
    <glyph glyph-name="gbreve" unicode="&#x11f;" horiz-adv-x="1277" 
d="M201 -361l23 171q171 -81 337 -81q333 0 333 353v171q-109 -228 -358 -228q-195 0 -310 142t-115 383q0 248 131 404t339 156q182 0 313 -148v124h198v-790q0 -255 -26.5 -377.5t-99.5 -200.5q-129 -137 -401 -137q-190 0 -364 58zM894 376v451q-130 135 -283 135
q-136 0 -213 -109t-77 -299q0 -357 251 -357q171 0 322 179zM268 1579h123q32 -148 210 -148t210 148h123q-15 -134 -106 -215t-227 -81t-226.5 80.5t-106.5 215.5z" />
    <glyph glyph-name="uni0122" unicode="&#x122;" horiz-adv-x="1480" 
d="M1303 40q-269 -77 -469 -77q-353 0 -541.5 201t-188.5 576q0 368 191 572.5t536 204.5q226 0 470 -67v-194q-306 104 -469 104q-240 0 -372.5 -163t-132.5 -459q0 -293 142 -455.5t398 -162.5q105 0 227 37v482h209v-599zM790 0h97l-60 -109q78 0 136 -47.5t58 -111.5
q0 -69 -58.5 -116.5t-142.5 -47.5q-72 0 -146 21v81q46 -15 105 -15q103 0 103 74q0 96 -187 96z" />
    <glyph glyph-name="uni0123" unicode="&#x123;" horiz-adv-x="1277" 
d="M201 -361l23 171q171 -81 337 -81q333 0 333 353v171q-109 -228 -358 -228q-195 0 -310 142t-115 383q0 248 131 404t339 156q182 0 313 -148v124h198v-790q0 -255 -26.5 -377.5t-99.5 -200.5q-129 -137 -401 -137q-190 0 -364 58zM894 376v451q-130 135 -283 135
q-136 0 -213 -109t-77 -299q0 -357 251 -357q171 0 322 179zM430 1283l241 321h228l-321 -321h-148z" />
    <glyph glyph-name="Itilde" unicode="&#x128;" horiz-adv-x="590" 
d="M190 0v1480h210v-1480h-210zM-37 1605q11 234 185 234q73 0 135 -38l60 -37q56 -35 86 -35q69 0 77 110h123q-11 -234 -185 -234q-73 0 -135 39l-60 37q-56 34 -86 34q-68 0 -77 -110h-123z" />
    <glyph glyph-name="itilde" unicode="&#x129;" horiz-adv-x="592" 
d="M197 0v1086h197v-1086h-197zM-37 1283q11 234 185 234q73 0 135 -38l60 -37q56 -35 86 -35q69 0 77 110h123q-11 -234 -185 -234q-73 0 -135 39l-60 37q-56 34 -86 34q-68 0 -77 -110h-123z" />
    <glyph glyph-name="Imacron" unicode="&#x12a;" horiz-adv-x="590" 
d="M190 0v1480h210v-1480h-210zM-25 1605v148h642v-148h-642z" />
    <glyph glyph-name="imacron" unicode="&#x12b;" horiz-adv-x="592" 
d="M197 0v1086h197v-1086h-197zM-25 1283v148h642v-148h-642z" />
    <glyph glyph-name="Iogonek" unicode="&#x12e;" horiz-adv-x="590" 
d="M190 0v1480h210v-1480h-210zM282 0h107q-129 -77 -129 -180q0 -95 115 -95q56 0 91 15v-81q-60 -29 -138 -29q-204 0 -204 159q0 125 158 211z" />
    <glyph glyph-name="iogonek" unicode="&#x12f;" horiz-adv-x="592" 
d="M197 0v1086h197v-1086h-197zM197 1283v197h197v-197h-197zM284 0h107q-129 -77 -129 -180q0 -95 115 -95q56 0 91 15v-81q-60 -29 -138 -29q-204 0 -204 159q0 125 158 211z" />
    <glyph glyph-name="Idotaccent" unicode="&#x130;" horiz-adv-x="590" 
d="M190 0v1480h210v-1480h-210zM197 1605v197h197v-197h-197z" />
    <glyph glyph-name="dotlessi" unicode="&#x131;" horiz-adv-x="592" 
d="M197 0v1086h197v-1086h-197z" />
    <glyph glyph-name="IJ" unicode="&#x132;" horiz-adv-x="1221" 
d="M190 0v1480h210v-1480h-210zM400 -275v186q120 -39 212 -39q120 0 167.5 68.5t47.5 239.5v1300h210v-1293q0 -483 -457 -483q-70 0 -180 21z" />
    <glyph glyph-name="ij" unicode="&#x133;" horiz-adv-x="1186" 
d="M197 0v1086h197v-1086h-197zM197 1283v197h197v-197h-197zM407 -369v156q138 -58 210 -58q104 0 138 54t34 217v1086h198v-1086q0 -419 -354 -419q-105 0 -226 50zM789 1283v197h198v-197h-198z" />
    <glyph glyph-name="Jcircumflex" unicode="&#x134;" horiz-adv-x="590" 
d="M190 0v1480h210v-1480h-210z" />
    <glyph glyph-name="jcircumflex" unicode="&#x135;" horiz-adv-x="592" 
d="M197 0v1086h197v-1086h-197zM197 1283v197h197v-197h-197z" />
    <glyph glyph-name="uni0136" unicode="&#x136;" horiz-adv-x="1337" 
d="M191 0v1480h197v-728l599 728h211l-580 -706l683 -774h-266l-647 750v-750h-197zM252 0h97l-60 -109q78 0 136 -47.5t58 -111.5q0 -69 -58.5 -116.5t-142.5 -47.5q-72 0 -146 21v81q46 -15 105 -15q103 0 103 74q0 96 -187 96z" />
    <glyph glyph-name="uni0137" unicode="&#x137;" horiz-adv-x="1197" 
d="M197 0v1579h197v-1020l460 527h212l-439 -507l530 -579h-252l-511 557v-557h-197zM260 0h97l-60 -109q78 0 136 -47.5t58 -111.5q0 -69 -58.5 -116.5t-142.5 -47.5q-72 0 -146 21v81q46 -15 105 -15q103 0 103 74q0 96 -187 96z" />
    <glyph glyph-name="Lacute" unicode="&#x139;" horiz-adv-x="1092" 
d="M191 0v1480h210v-1323h666v-157h-876zM173 1605l241 321h228l-321 -321h-148z" />
    <glyph glyph-name="lacute" unicode="&#x13a;" horiz-adv-x="592" 
d="M197 0v1579h197v-1579h-197zM148 1678l241 321h228l-321 -321h-148z" />
    <glyph glyph-name="uni013B" unicode="&#x13b;" horiz-adv-x="1092" 
d="M191 0v1480h210v-1323h666v-157h-876zM580 0h97l-60 -109q78 0 136 -47.5t58 -111.5q0 -69 -58.5 -116.5t-142.5 -47.5q-72 0 -146 21v81q46 -15 105 -15q103 0 103 74q0 96 -187 96z" />
    <glyph glyph-name="uni013C" unicode="&#x13c;" horiz-adv-x="592" 
d="M197 0v1579h197v-1579h-197zM260 0h97l-60 -109q78 0 136 -47.5t58 -111.5q0 -69 -58.5 -116.5t-142.5 -47.5q-72 0 -146 21v81q46 -15 105 -15q103 0 103 74q0 96 -187 96z" />
    <glyph glyph-name="Lcaron" unicode="&#x13d;" horiz-adv-x="1092" 
d="M191 0v1480h210v-1323h666v-157h-876zM697 1028v59q76 21 76 181v17h-76v197h197v-171q0 -263 -197 -283z" />
    <glyph glyph-name="lcaron" unicode="&#x13e;" horiz-adv-x="765" 
d="M197 0v1579h197v-1579h-197zM568 1125v59q76 21 76 181v17h-76v197h197v-171q0 -263 -197 -283z" />
    <glyph glyph-name="Ldot" unicode="&#x13f;" horiz-adv-x="1092" 
d="M191 0v1480h210v-1323h666v-157h-876zM743 643v197h197v-197h-197z" />
    <glyph glyph-name="ldot" unicode="&#x140;" horiz-adv-x="790" 
d="M197 0v1579h197v-1579h-197zM591 692v197h197v-197h-197z" />
    <glyph glyph-name="Lslash" unicode="&#x141;" horiz-adv-x="1123" 
d="M222 0v692l-197 -107v169l197 108v618h210v-504l247 134v-169l-247 -134v-650h666v-157h-876z" />
    <glyph glyph-name="lslash" unicode="&#x142;" horiz-adv-x="672" 
d="M247 0v721l-222 -118v166l222 120v690h197v-581l223 112v-163l-223 -117v-830h-197z" />
    <glyph glyph-name="Nacute" unicode="&#x143;" horiz-adv-x="1513" 
d="M191 0v1480h206l745 -1143v1143h180v-1480h-205l-746 1143v-1143h-180zM608 1605l241 321h228l-321 -321h-148z" />
    <glyph glyph-name="nacute" unicode="&#x144;" horiz-adv-x="1271" 
d="M197 0v1086h197v-204q156 228 382 228q141 0 225 -89.5t84 -240.5v-780h-197v716q0 121 -35.5 172.5t-117.5 51.5q-181 0 -341 -237v-703h-197zM469 1283l241 321h228l-321 -321h-148z" />
    <glyph glyph-name="uni0145" unicode="&#x145;" horiz-adv-x="1513" 
d="M191 0v1480h206l745 -1143v1143h180v-1480h-205l-746 1143v-1143h-180zM252 0h97l-60 -109q78 0 136 -47.5t58 -111.5q0 -69 -58.5 -116.5t-142.5 -47.5q-72 0 -146 21v81q46 -15 105 -15q103 0 103 74q0 96 -187 96z" />
    <glyph glyph-name="uni0146" unicode="&#x146;" horiz-adv-x="1271" 
d="M197 0v1086h197v-204q156 228 382 228q141 0 225 -89.5t84 -240.5v-780h-197v716q0 121 -35.5 172.5t-117.5 51.5q-181 0 -341 -237v-703h-197zM260 0h97l-60 -109q78 0 136 -47.5t58 -111.5q0 -69 -58.5 -116.5t-142.5 -47.5q-72 0 -146 21v81q46 -15 105 -15
q103 0 103 74q0 96 -187 96z" />
    <glyph glyph-name="Ncaron" unicode="&#x147;" horiz-adv-x="1513" 
d="M191 0v1480h206l745 -1143v1143h180v-1480h-205l-746 1143v-1143h-180zM1106 1926l-241 -321h-218l-241 321h148l201 -202h2l201 202h148z" />
    <glyph glyph-name="ncaron" unicode="&#x148;" horiz-adv-x="1271" 
d="M197 0v1086h197v-204q156 228 382 228q141 0 225 -89.5t84 -240.5v-780h-197v716q0 121 -35.5 172.5t-117.5 51.5q-181 0 -341 -237v-703h-197zM989 1604l-241 -321h-218l-241 321h148l201 -202h2l201 202h148z" />
    <glyph glyph-name="napostrophe" unicode="&#x149;" horiz-adv-x="1271" 
d="M197 0v1086h197v-204q156 228 382 228q141 0 225 -89.5t84 -240.5v-780h-197v716q0 121 -35.5 172.5t-117.5 51.5q-181 0 -341 -237v-703h-197zM197 1283v59q76 21 76 181v17h-76v197h197v-171q0 -263 -197 -283z" />
    <glyph glyph-name="Omacron" unicode="&#x14c;" horiz-adv-x="1591" 
d="M787 -37q-308 0 -495.5 213.5t-187.5 564.5q0 353 188.5 564.5t503.5 211.5q314 0 503 -211t189 -563q0 -359 -189 -569.5t-512 -210.5zM790 120q227 0 351 163.5t124 461.5q0 289 -124.5 452t-344.5 163q-221 0 -345 -163.5t-124 -454.5q0 -290 123 -456t340 -166z
M476 1605v148h642v-148h-642z" />
    <glyph glyph-name="omacron" unicode="&#x14d;" horiz-adv-x="1258" 
d="M622 -25q-233 0 -372 154.5t-139 413.5q0 262 139.5 414.5t378.5 152.5t378.5 -152.5t139.5 -412.5q0 -266 -140 -418t-385 -152zM625 123q313 0 313 422q0 417 -309 417q-308 0 -308 -419q0 -199 80 -309.5t224 -110.5zM308 1283v148h642v-148h-642z" />
    <glyph glyph-name="Ohungarumlaut" unicode="&#x150;" horiz-adv-x="1591" 
d="M787 -37q-308 0 -495.5 213.5t-187.5 564.5q0 353 188.5 564.5t503.5 211.5q314 0 503 -211t189 -563q0 -359 -189 -569.5t-512 -210.5zM790 120q227 0 351 163.5t124 461.5q0 289 -124.5 452t-344.5 163q-221 0 -345 -163.5t-124 -454.5q0 -290 123 -456t340 -166z
M565 1605l241 321h191l-321 -321h-111zM917 1605l240 321h191l-320 -321h-111z" />
    <glyph glyph-name="ohungarumlaut" unicode="&#x151;" horiz-adv-x="1258" 
d="M622 -25q-233 0 -372 154.5t-139 413.5q0 262 139.5 414.5t378.5 152.5t378.5 -152.5t139.5 -412.5q0 -266 -140 -418t-385 -152zM625 123q313 0 313 422q0 417 -309 417q-308 0 -308 -419q0 -199 80 -309.5t224 -110.5zM399 1283l241 321h191l-321 -321h-111zM751 1283
l240 321h191l-320 -321h-111z" />
    <glyph glyph-name="Racute" unicode="&#x154;" horiz-adv-x="1295" 
d="M191 0v1480h448q213 0 326.5 -94t113.5 -273q0 -141 -78.5 -251t-220.5 -169l494 -693h-258l-421 626h-196v-626h-208zM399 783h68q396 0 396 311q0 229 -332 229h-132v-540zM473 1605l241 321h228l-321 -321h-148z" />
    <glyph glyph-name="racute" unicode="&#x155;" horiz-adv-x="838" 
d="M197 0v1086h197v-204q117 228 340 228q30 0 63 -5v-184q-51 17 -90 17q-187 0 -313 -222v-716h-197zM324 1283l241 321h228l-321 -321h-148z" />
    <glyph glyph-name="uni0156" unicode="&#x156;" horiz-adv-x="1295" 
d="M191 0v1480h448q213 0 326.5 -94t113.5 -273q0 -141 -78.5 -251t-220.5 -169l494 -693h-258l-421 626h-196v-626h-208zM399 783h68q396 0 396 311q0 229 -332 229h-132v-540zM252 0h97l-60 -109q78 0 136 -47.5t58 -111.5q0 -69 -58.5 -116.5t-142.5 -47.5q-72 0 -146 21
v81q46 -15 105 -15q103 0 103 74q0 96 -187 96z" />
    <glyph glyph-name="uni0157" unicode="&#x157;" horiz-adv-x="838" 
d="M197 0v1086h197v-204q117 228 340 228q30 0 63 -5v-184q-51 17 -90 17q-187 0 -313 -222v-716h-197zM260 0h97l-60 -109q78 0 136 -47.5t58 -111.5q0 -69 -58.5 -116.5t-142.5 -47.5q-72 0 -146 21v81q46 -15 105 -15q103 0 103 74q0 96 -187 96z" />
    <glyph glyph-name="Rcaron" unicode="&#x158;" horiz-adv-x="1295" 
d="M191 0v1480h448q213 0 326.5 -94t113.5 -273q0 -141 -78.5 -251t-220.5 -169l494 -693h-258l-421 626h-196v-626h-208zM399 783h68q396 0 396 311q0 229 -332 229h-132v-540zM945 1926l-241 -321h-218l-241 321h148l201 -202h2l201 202h148z" />
    <glyph glyph-name="rcaron" unicode="&#x159;" horiz-adv-x="838" 
d="M197 0v1086h197v-204q117 228 340 228q30 0 63 -5v-184q-51 17 -90 17q-187 0 -313 -222v-716h-197zM855 1604l-241 -321h-218l-241 321h148l201 -202h2l201 202h148z" />
    <glyph glyph-name="Sacute" unicode="&#x15a;" horiz-adv-x="1103" 
d="M100 28v208q250 -116 411 -116q124 0 199.5 65t75.5 171q0 87 -49.5 148t-182.5 136l-102 59q-189 108 -266.5 203.5t-77.5 222.5q0 171 124 281.5t316 110.5q171 0 361 -57v-192q-234 92 -349 92q-109 0 -180 -58t-71 -146q0 -74 52 -131t190 -136l106 -60
q192 -109 268 -206t76 -233q0 -193 -142.5 -310t-377.5 -117q-149 0 -381 65zM428 1605l241 321h228l-321 -321h-148z" />
    <glyph glyph-name="sacute" unicode="&#x15b;" horiz-adv-x="1044" 
d="M157 38v181q193 -96 336 -96q85 0 141 46t56 115q0 101 -157 167l-115 49q-255 106 -255 305q0 142 100.5 223.5t275.5 81.5q91 0 225 -25l41 -8v-164q-165 49 -262 49q-190 0 -190 -138q0 -89 144 -150l95 -40q161 -68 228 -143.5t67 -188.5q0 -143 -113 -235t-289 -92
q-135 0 -328 63zM351 1283l241 321h228l-321 -321h-148z" />
    <glyph glyph-name="Scedilla" unicode="&#x15e;" horiz-adv-x="1103" 
d="M100 28v208q250 -116 411 -116q124 0 199.5 65t75.5 171q0 87 -49.5 148t-182.5 136l-102 59q-189 108 -266.5 203.5t-77.5 222.5q0 171 124 281.5t316 110.5q171 0 361 -57v-192q-234 92 -349 92q-109 0 -180 -58t-71 -146q0 -74 52 -131t190 -136l106 -60
q192 -109 268 -206t76 -233q0 -193 -142.5 -310t-377.5 -117q-149 0 -381 65zM385 -421v85q50 -9 98 -9q109 0 109 67q0 77 -158 90v77q293 0 293 -168q0 -70 -58.5 -111.5t-158.5 -41.5q-62 0 -125 11z" />
    <glyph glyph-name="scedilla" unicode="&#x15f;" horiz-adv-x="1044" 
d="M157 38v181q193 -96 336 -96q85 0 141 46t56 115q0 101 -157 167l-115 49q-255 106 -255 305q0 142 100.5 223.5t275.5 81.5q91 0 225 -25l41 -8v-164q-165 49 -262 49q-190 0 -190 -138q0 -89 144 -150l95 -40q161 -68 228 -143.5t67 -188.5q0 -143 -113 -235t-289 -92
q-135 0 -328 63zM355 -421v85q50 -9 98 -9q109 0 109 67q0 77 -158 90v77q293 0 293 -168q0 -70 -58.5 -111.5t-158.5 -41.5q-62 0 -125 11z" />
    <glyph glyph-name="uni0162" unicode="&#x162;" horiz-adv-x="1295" 
d="M543 0v1323h-525v157h1260v-157h-525v-1323h-210zM495 -421v85q50 -9 98 -9q109 0 109 67q0 77 -158 90v77q293 0 293 -168q0 -70 -58.5 -111.5t-158.5 -41.5q-62 0 -125 11z" />
    <glyph glyph-name="uni0163" unicode="&#x163;" horiz-adv-x="766" 
d="M681 0q-91 -25 -158 -25q-150 0 -234 86t-84 239v638h-136v148h136v197l197 19v-216h284v-148h-284v-602q0 -213 184 -213q39 0 95 13v-136zM318 -421v85q50 -9 98 -9q109 0 109 67q0 77 -158 90v77q293 0 293 -168q0 -70 -58.5 -111.5t-158.5 -41.5q-62 0 -125 11z" />
    <glyph glyph-name="Tcaron" unicode="&#x164;" horiz-adv-x="1295" 
d="M543 0v1323h-525v157h1260v-157h-525v-1323h-210zM997 1926l-241 -321h-218l-241 321h148l201 -202h2l201 202h148z" />
    <glyph glyph-name="tcaron" unicode="&#x165;" horiz-adv-x="773" 
d="M681 0q-91 -25 -158 -25q-150 0 -234 86t-84 239v638h-136v148h136v197l197 19v-216h284v-148h-284v-602q0 -213 184 -213q39 0 95 13v-136zM574 1258v59q76 21 76 181v17h-76v197h197v-171q0 -263 -197 -283z" />
    <glyph glyph-name="Utilde" unicode="&#x168;" horiz-adv-x="1419" 
d="M179 1480h210v-934q0 -223 82.5 -324.5t262.5 -101.5q176 0 249.5 95.5t73.5 323.5v941h184v-938q0 -194 -38 -298t-137 -183q-124 -98 -346 -98q-277 0 -409 143t-132 442v932zM390 1605q11 234 185 234q73 0 135 -38l60 -37q56 -35 86 -35q69 0 77 110h123
q-11 -234 -185 -234q-73 0 -135 39l-60 37q-56 34 -86 34q-68 0 -77 -110h-123z" />
    <glyph glyph-name="utilde" unicode="&#x169;" horiz-adv-x="1271" 
d="M876 0v204q-157 -229 -381 -229q-142 0 -226 89.5t-84 241.5v780h197v-716q0 -122 35.5 -173.5t118.5 -51.5q180 0 340 237v704h197v-1086h-197zM296 1283q11 234 185 234q73 0 135 -38l60 -37q56 -35 86 -35q69 0 77 110h123q-11 -234 -185 -234q-73 0 -135 39l-60 37
q-56 34 -86 34q-68 0 -77 -110h-123z" />
    <glyph glyph-name="Umacron" unicode="&#x16a;" horiz-adv-x="1419" 
d="M179 1480h210v-934q0 -223 82.5 -324.5t262.5 -101.5q176 0 249.5 95.5t73.5 323.5v941h184v-938q0 -194 -38 -298t-137 -183q-124 -98 -346 -98q-277 0 -409 143t-132 442v932zM402 1605v148h642v-148h-642z" />
    <glyph glyph-name="umacron" unicode="&#x16b;" horiz-adv-x="1271" 
d="M876 0v204q-157 -229 -381 -229q-142 0 -226 89.5t-84 241.5v780h197v-716q0 -122 35.5 -173.5t118.5 -51.5q180 0 340 237v704h197v-1086h-197zM308 1283v148h642v-148h-642z" />
    <glyph glyph-name="Uring" unicode="&#x16e;" horiz-adv-x="1419" 
d="M179 1480h210v-934q0 -223 82.5 -324.5t262.5 -101.5q176 0 249.5 95.5t73.5 323.5v941h184v-938q0 -194 -38 -298t-137 -183q-124 -98 -346 -98q-277 0 -409 143t-132 442v932zM708 1580q-93 0 -158.5 66.5t-65.5 160.5t66 160.5t161 66.5q94 0 160.5 -66t66.5 -161
q0 -96 -66.5 -161.5t-163.5 -65.5zM709 1666q60 0 101.5 41t41.5 101q0 58 -41.5 99t-99.5 41q-59 0 -100 -41t-41 -100q0 -58 41 -99.5t98 -41.5z" />
    <glyph glyph-name="uring" unicode="&#x16f;" horiz-adv-x="1271" 
d="M876 0v204q-157 -229 -381 -229q-142 0 -226 89.5t-84 241.5v780h197v-716q0 -122 35.5 -173.5t118.5 -51.5q180 0 340 237v704h197v-1086h-197zM626 1283q-93 0 -158.5 66.5t-65.5 160.5t66 160.5t161 66.5q94 0 160.5 -66t66.5 -161q0 -96 -66.5 -161.5t-163.5 -65.5z
M627 1369q60 0 101.5 41t41.5 101q0 58 -41.5 99t-99.5 41q-59 0 -100 -41t-41 -100q0 -58 41 -99.5t98 -41.5z" />
    <glyph glyph-name="Uhungarumlaut" unicode="&#x170;" horiz-adv-x="1419" 
d="M179 1480h210v-934q0 -223 82.5 -324.5t262.5 -101.5q176 0 249.5 95.5t73.5 323.5v941h184v-938q0 -194 -38 -298t-137 -183q-124 -98 -346 -98q-277 0 -409 143t-132 442v932zM493 1605l241 321h191l-321 -321h-111zM845 1605l240 321h191l-320 -321h-111z" />
    <glyph glyph-name="uhungarumlaut" unicode="&#x171;" horiz-adv-x="1271" 
d="M876 0v204q-157 -229 -381 -229q-142 0 -226 89.5t-84 241.5v780h197v-716q0 -122 35.5 -173.5t118.5 -51.5q180 0 340 237v704h197v-1086h-197zM382 1283l241 321h191l-321 -321h-111zM734 1283l240 321h191l-320 -321h-111z" />
    <glyph glyph-name="Uogonek" unicode="&#x172;" horiz-adv-x="1419" 
d="M179 1480h210v-934q0 -223 82.5 -324.5t262.5 -101.5q176 0 249.5 95.5t73.5 323.5v941h184v-938q0 -194 -38 -298t-137 -183q-124 -98 -346 -98q-277 0 -409 143t-132 442v932zM828 0h107q-129 -77 -129 -180q0 -95 115 -95q56 0 91 15v-81q-60 -29 -138 -29
q-204 0 -204 159q0 125 158 211z" />
    <glyph glyph-name="uogonek" unicode="&#x173;" horiz-adv-x="1271" 
d="M876 0v204q-157 -229 -381 -229q-142 0 -226 89.5t-84 241.5v780h197v-716q0 -122 35.5 -173.5t118.5 -51.5q180 0 340 237v704h197v-1086h-197zM875 0h107q-129 -77 -129 -180q0 -95 115 -95q56 0 91 15v-81q-60 -29 -138 -29q-204 0 -204 159q0 125 158 211z" />
    <glyph glyph-name="Zacute" unicode="&#x179;" horiz-adv-x="1238" 
d="M95 0v168l795 1155h-746v157h998v-157l-795 -1155h795v-168h-1047zM483 1605l241 321h228l-321 -321h-148z" />
    <glyph glyph-name="zacute" unicode="&#x17a;" horiz-adv-x="1174" 
d="M123 0v148l672 790h-641v148h884v-148l-672 -790h685v-148h-928zM413 1283l241 321h228l-321 -321h-148z" />
    <glyph glyph-name="Zdotaccent" unicode="&#x17b;" horiz-adv-x="1238" 
d="M95 0v168l795 1155h-746v157h998v-157l-795 -1155h795v-168h-1047zM544 1605v197h197v-197h-197z" />
    <glyph glyph-name="zdotaccent" unicode="&#x17c;" horiz-adv-x="1174" 
d="M123 0v148l672 790h-641v148h884v-148l-672 -790h685v-148h-928zM488 1283v197h197v-197h-197z" />
    <glyph glyph-name="Zcaron" unicode="&#x17d;" horiz-adv-x="1238" 
d="M95 0v168l795 1155h-746v157h998v-157l-795 -1155h795v-168h-1047zM1004 1926l-241 -321h-218l-241 321h148l201 -202h2l201 202h148z" />
    <glyph glyph-name="zcaron" unicode="&#x17e;" horiz-adv-x="1174" 
d="M123 0v148l672 790h-641v148h884v-148l-672 -790h685v-148h-928zM937 1604l-241 -321h-218l-241 321h148l201 -202h2l201 202h148z" />
    <glyph glyph-name="Ohorn" unicode="&#x1a0;" horiz-adv-x="1647" 
d="M1393 1169q95 -194 95 -432q0 -351 -189 -562.5t-503 -211.5q-315 0 -503.5 211.5t-188.5 565.5t188.5 565.5t503.5 211.5q348 0 543 -259q81 17 114.5 67t33.5 155v99h148v-49q0 -294 -242 -361zM790 120q227 0 351 163.5t124 461.5q0 289 -124.5 452t-344.5 163
q-221 0 -345 -163.5t-124 -454.5q0 -290 123 -456t340 -166z" />
    <glyph glyph-name="ohorn" unicode="&#x1a1;" horiz-adv-x="1382" 
d="M1112 771q35 -111 35 -226q0 -263 -139 -416.5t-379 -153.5q-239 0 -378.5 153t-139.5 415t139.5 414.5t378.5 152.5q307 0 443 -246q82 15 115.5 65.5t33.5 156.5v98h148v-49q0 -304 -257 -364zM625 123q313 0 313 422q0 417 -309 417q-308 0 -308 -419
q0 -199 80 -309.5t224 -110.5z" />
    <glyph glyph-name="Uhorn" unicode="&#x1af;" horiz-adv-x="1549" 
d="M179 1480h210v-934q0 -223 82.5 -324.5t262.5 -101.5q176 0 249.5 95.5t73.5 323.5v941h184v-222q81 17 114.5 67t33.5 155v99h148v-49q0 -341 -296 -370v-618q0 -194 -38 -298t-137 -183q-124 -98 -346 -98q-277 0 -409 143t-132 442v932z" />
    <glyph glyph-name="uhorn" unicode="&#x1b0;" horiz-adv-x="1382" 
d="M185 1086h197v-716q0 -122 35.5 -173.5t118.5 -51.5q180 0 340 237v704h197v-222q81 16 114.5 66t33.5 156v98h148v-49q0 -340 -296 -370v-765h-197v204q-157 -229 -381 -229q-142 0 -226 89.5t-84 241.5v780z" />
    <glyph glyph-name="caron" unicode="&#x2c7;" horiz-adv-x="1258" 
d="M979 1604l-241 -321h-218l-241 321h148l201 -202h2l201 202h148z" />
    <glyph glyph-name="macron" unicode="&#x2c9;" horiz-adv-x="1258" 
d="M308 1283v148h642v-148h-642z" />
    <glyph glyph-name="breve" unicode="&#x2d8;" horiz-adv-x="1258" 
d="M296 1579h123q32 -148 210 -148t210 148h123q-15 -134 -106 -215t-227 -81t-226.5 80.5t-106.5 215.5z" />
    <glyph glyph-name="dotaccent" unicode="&#x2d9;" horiz-adv-x="1258" 
d="M530 1283v197h197v-197h-197z" />
    <glyph glyph-name="ring" unicode="&#x2da;" horiz-adv-x="1258" 
d="M626 1283q-93 0 -158.5 66.5t-65.5 160.5t66 160.5t161 66.5q94 0 160.5 -66t66.5 -161q0 -96 -66.5 -161.5t-163.5 -65.5zM627 1369q60 0 101.5 41t41.5 101q0 58 -41.5 99t-99.5 41q-59 0 -100 -41t-41 -100q0 -58 41 -99.5t98 -41.5z" />
    <glyph glyph-name="ogonek" unicode="&#x2db;" horiz-adv-x="1258" 
d="M658 0h107q-129 -77 -129 -180q0 -95 115 -95q56 0 91 15v-81q-60 -29 -138 -29q-204 0 -204 159q0 125 158 211z" />
    <glyph glyph-name="hungarumlaut" unicode="&#x2dd;" horiz-adv-x="1258" 
d="M237 1283l241 321h191l-321 -321h-111zM589 1283l240 321h191l-320 -321h-111z" />
    <glyph glyph-name="gravecomb" unicode="&#x300;" horiz-adv-x="1257" 
d="M779 1283h-148l-321 321h228z" />
    <glyph glyph-name="acutecomb" unicode="&#x301;" horiz-adv-x="1257" 
d="M481 1283l241 321h228l-321 -321h-148z" />
    <glyph glyph-name="uni0302" unicode="&#x302;" horiz-adv-x="1257" 
d="M279 1283l241 321h218l241 -321h-148l-201 202h-2l-201 -202h-148z" />
    <glyph glyph-name="tildecomb" unicode="&#x303;" horiz-adv-x="1257" 
d="M296 1283q11 234 185 234q73 0 135 -38l60 -37q56 -35 86 -35q69 0 77 110h123q-11 -234 -185 -234q-73 0 -135 39l-60 37q-56 34 -86 34q-68 0 -77 -110h-123z" />
    <glyph glyph-name="hookabovecomb" unicode="&#x309;" horiz-adv-x="1258" 
d="M561 1283q0 91 43 125l41 31l26 22q47 41 47 71q0 66 -116 66q-52 0 -112 -19v106q72 18 140 18q236 0 236 -144q0 -60 -78 -128l-22 -19q-45 -39 -54 -58t-9 -71h-142z" />
    <glyph glyph-name="dotbelowcomb" unicode="&#x323;" horiz-adv-x="1258" 
d="M530 -395v198h197v-198h-197z" />
    <glyph glyph-name="tonos" unicode="&#x384;" horiz-adv-x="1259" 
d="M555 1283l-34 321h216l-34 -321h-148z" />
    <glyph glyph-name="dieresistonos" unicode="&#x385;" horiz-adv-x="1258" 
d="M234 1283v173h173v-173h-173zM851 1283v173h173v-173h-173zM564 1283l-34 321h198l-34 -321h-130z" />
    <glyph glyph-name="Alphatonos" unicode="&#x386;" horiz-adv-x="1413" 
d="M17 0l587 1480h208l578 -1480h-227l-161 410h-627l-163 -410h-195zM436 566h505l-252 638zM36 1161l-34 321h216l-34 -321h-148z" />
    <glyph glyph-name="anoteleia" unicode="&#x387;" horiz-adv-x="648" 
d="M225 493v198h197v-198h-197z" />
    <glyph glyph-name="Epsilontonos" unicode="&#x388;" horiz-adv-x="1327" 
d="M406 0v1480h827v-157h-617v-475h517v-155h-517v-536h660v-157h-870zM36 1161l-34 321h216l-34 -321h-148z" />
    <glyph glyph-name="Etatonos" unicode="&#x389;" horiz-adv-x="1721" 
d="M406 0v1480h210v-624h704v624h210v-1480h-210v699h-704v-699h-210zM36 1161l-34 321h216l-34 -321h-148z" />
    <glyph glyph-name="Iotatonos" unicode="&#x38a;" horiz-adv-x="807" 
d="M407 0v1480h210v-1480h-210zM36 1161l-34 321h216l-34 -321h-148z" />
    <glyph glyph-name="Omicrontonos" unicode="&#x38c;" horiz-adv-x="1767" 
d="M963 -37q-308 0 -495.5 213.5t-187.5 564.5q0 353 188.5 564.5t503.5 211.5q314 0 503 -211t189 -563q0 -359 -189 -569.5t-512 -210.5zM966 120q227 0 351 163.5t124 461.5q0 289 -124.5 452t-344.5 163q-221 0 -345 -163.5t-124 -454.5q0 -290 123 -456t340 -166z
M36 1161l-34 321h216l-34 -321h-148z" />
    <glyph glyph-name="Upsilontonos" unicode="&#x38e;" horiz-adv-x="1676" 
d="M907 0v479q0 352 -147.5 590.5t-364.5 238.5v172h15q489 0 624 -597q91 244 258 406.5t355 190.5v-148q-231 -66 -386.5 -311t-155.5 -542v-479h-198zM36 1161l-34 321h216l-34 -321h-148z" />
    <glyph glyph-name="Omegatonos" unicode="&#x38f;" horiz-adv-x="1787" 
d="M244 0v154h407q-358 270 -358 678q0 300 194 492.5t497 192.5t497 -192t194 -493q0 -409 -358 -678h407v-154h-610v154q339 229 339 664q0 255 -124.5 400t-344.5 145q-219 0 -344 -145t-125 -401q0 -433 340 -663v-154h-611zM36 1161l-34 321h216l-34 -321h-148z" />
    <glyph glyph-name="iotadieresistonos" unicode="&#x390;" horiz-adv-x="753" 
d="M703 17q-92 -42 -193 -42q-168 0 -240.5 94.5t-72.5 312.5v704h197v-685q0 -152 35.5 -215t121.5 -63q73 0 152 42v-148zM-99 1283v173h173v-173h-173zM518 1283v173h173v-173h-173zM231 1283l-34 321h198l-34 -321h-130z" />
    <glyph glyph-name="Alpha" unicode="&#x391;" horiz-adv-x="1413" 
d="M17 0l587 1480h208l578 -1480h-227l-161 410h-627l-163 -410h-195zM436 566h505l-252 638z" />
    <glyph glyph-name="Beta" unicode="&#x392;" horiz-adv-x="1178" 
d="M191 0v1480h384q222 0 340.5 -84t118.5 -242q0 -269 -304 -383q363 -111 363 -401q0 -130 -80 -231q-61 -77 -147 -108t-239 -31h-436zM399 157h43q231 0 299 29q130 55 130 204q0 132 -118 219.5t-295 87.5h-59v-540zM399 830h67q168 0 260.5 72t92.5 203
q0 218 -338 218h-82v-493z" />
    <glyph glyph-name="Gamma" unicode="&#x393;" horiz-adv-x="1043" 
d="M191 0v1480h828v-160h-618v-1320h-210z" />
    <glyph glyph-name="uni0394" unicode="&#x394;" horiz-adv-x="1434" 
d="M49 0v185l565 1295h208l563 -1295v-185h-1336zM230 185h928l-463 1064z" />
    <glyph glyph-name="Epsilon" unicode="&#x395;" horiz-adv-x="1110" 
d="M191 0v1480h827v-157h-617v-475h517v-155h-517v-536h660v-157h-870z" />
    <glyph glyph-name="Zeta" unicode="&#x396;" horiz-adv-x="1237" 
d="M95 0v168l795 1155h-746v157h998v-157l-795 -1155h795v-168h-1047z" />
    <glyph glyph-name="Eta" unicode="&#x397;" horiz-adv-x="1505" 
d="M191 0v1480h210v-624h704v624h210v-1480h-210v699h-704v-699h-210z" />
    <glyph glyph-name="Theta" unicode="&#x398;" horiz-adv-x="1592" 
d="M787 -37q-308 0 -495.5 213.5t-187.5 563.5q0 354 188.5 565.5t503.5 211.5t503.5 -211t188.5 -563q0 -359 -189 -569.5t-512 -210.5zM790 120q227 0 351 163t124 461q0 289 -124 452.5t-345 163.5t-345 -163.5t-124 -454.5q0 -290 123 -456t340 -166zM518 685v160h556
v-160h-556z" />
    <glyph glyph-name="Iota" unicode="&#x399;" horiz-adv-x="590" 
d="M190 0v1480h210v-1480h-210z" />
    <glyph glyph-name="Kappa" unicode="&#x39a;" horiz-adv-x="1337" 
d="M191 0v1480h197v-728l599 728h211l-580 -706l683 -774h-266l-647 750v-750h-197z" />
    <glyph glyph-name="Lambda" unicode="&#x39b;" horiz-adv-x="1333" 
d="M19 0l537 1480h197l561 -1480h-211l-467 1232l-446 -1232h-171z" />
    <glyph glyph-name="Mu" unicode="&#x39c;" horiz-adv-x="1763" 
d="M191 0v1480h291l410 -1145l422 1145h260v-1480h-196v1204l-408 -1105h-203l-396 1108v-1207h-180z" />
    <glyph glyph-name="Nu" unicode="&#x39d;" horiz-adv-x="1513" 
d="M191 0v1480h206l745 -1143v1143h180v-1480h-205l-746 1143v-1143h-180z" />
    <glyph glyph-name="Xi" unicode="&#x39e;" horiz-adv-x="1271" 
d="M49 0v191h1172v-191h-1172zM203 675v192h864v-192h-864zM105 1289v191h1061v-191h-1061z" />
    <glyph glyph-name="Omicron" unicode="&#x39f;" horiz-adv-x="1591" 
d="M787 -37q-308 0 -495.5 213.5t-187.5 564.5q0 353 188.5 564.5t503.5 211.5q314 0 503 -211t189 -563q0 -359 -189 -569.5t-512 -210.5zM790 120q227 0 351 163.5t124 461.5q0 289 -124.5 452t-344.5 163q-221 0 -345 -163.5t-124 -454.5q0 -290 123 -456t340 -166z" />
    <glyph glyph-name="Pi" unicode="&#x3a0;" horiz-adv-x="1506" 
d="M191 0v1480h1124v-1480h-210v1323h-704v-1323h-210z" />
    <glyph glyph-name="Rho" unicode="&#x3a1;" horiz-adv-x="1133" 
d="M191 0v1480h403q268 0 385 -90.5t117 -297.5q0 -236 -160 -370t-444 -134h-93v-588h-208zM399 747h85q187 0 289 86t102 243q0 133 -80 190t-267 57h-129v-576z" />
    <glyph glyph-name="Sigma" unicode="&#x3a3;" horiz-adv-x="1215" 
d="M293 188h867v-188h-1098v188l543 560l-518 578v154h1042v-154h-777l503 -560z" />
    <glyph glyph-name="Tau" unicode="&#x3a4;" horiz-adv-x="1294" 
d="M543 0v1323h-525v157h1260v-157h-525v-1323h-210z" />
    <glyph glyph-name="Upsilon" unicode="&#x3a5;" horiz-adv-x="1307" 
d="M538 0v479q0 352 -147.5 590.5t-364.5 238.5v172h15q489 0 624 -597q91 244 258 406.5t355 190.5v-148q-231 -66 -386.5 -311t-155.5 -542v-479h-198z" />
    <glyph glyph-name="Phi" unicode="&#x3a6;" horiz-adv-x="1443" 
d="M629 0v222q-253 0 -410 143.5t-157 374.5q0 232 157 375t410 143v222h185v-222q254 0 411 -143t157 -375q0 -231 -157 -374.5t-411 -143.5v-222h-185zM629 375v730q-170 0 -264 -95.5t-94 -269.5t94 -269.5t264 -95.5zM814 375q171 0 264.5 95.5t93.5 269.5t-93.5 269.5
t-264.5 95.5v-730z" />
    <glyph glyph-name="Chi" unicode="&#x3a7;" horiz-adv-x="1282" 
d="M16 0l491 743l-467 737h248l356 -558l374 558h198l-473 -715l485 -765h-248l-376 587l-389 -587h-199z" />
    <glyph glyph-name="Psi" unicode="&#x3a8;" horiz-adv-x="1480" 
d="M641 0v623q-188 14 -284.5 103t-126.5 278l-20 126q-21 127 -53.5 161.5t-130.5 34.5h-14v154h17q175 0 246.5 -60.5t103.5 -237.5l20 -115q30 -163 78.5 -225t146.5 -62q5 0 17 1v699h198v-699q11 -1 17 -1q98 0 146.5 61.5t77.5 225.5l21 115q32 177 103.5 237.5
t246.5 60.5h17v-154h-14q-99 0 -131.5 -34.5t-52.5 -161.5l-20 -126q-30 -189 -126.5 -278t-284.5 -103v-623h-198z" />
    <glyph glyph-name="uni03A9" unicode="&#x3a9;" horiz-adv-x="1628" 
d="M74 0v154h407q-358 270 -358 678q0 300 194 492.5t497 192.5t497 -192t194 -493q0 -409 -358 -678h407v-154h-610v154q339 229 339 664q0 255 -124.5 400t-344.5 145q-219 0 -344 -145t-125 -401q0 -433 340 -663v-154h-611z" />
    <glyph glyph-name="Iotadieresis" unicode="&#x3aa;" horiz-adv-x="590" 
d="M190 0v1480h210v-1480h-210zM12 1605v173h173v-173h-173zM407 1605v173h173v-173h-173z" />
    <glyph glyph-name="Upsilondieresis" unicode="&#x3ab;" horiz-adv-x="1307" 
d="M538 0v479q0 352 -147.5 590.5t-364.5 238.5v172h15q489 0 624 -597q91 244 258 406.5t355 190.5v-148q-231 -66 -386.5 -311t-155.5 -542v-479h-198zM390 1605v173h173v-173h-173zM785 1605v173h173v-173h-173z" />
    <glyph glyph-name="alphatonos" unicode="&#x3ac;" horiz-adv-x="1421" 
d="M989 716q71 191 106 370h184q-53 -228 -215 -542l21 -48q12 -29 61 -133q30 -64 70 -152q60 -137 98 -211h-210q-11 25 -14 30l-45 104l-41 96l-32 77l-16 37q-93 -204 -187 -286.5t-236 -82.5q-182 0 -291.5 142.5t-109.5 379.5q0 277 125.5 445.5t332.5 168.5
q138 0 220 -81t179 -314zM888 504l-49 111q-90 206 -145.5 276.5t-125.5 70.5q-99 0 -162.5 -122t-63.5 -311q0 -183 59.5 -294.5t157.5 -111.5q85 0 156 82t173 299zM598 1283l-34 321h216l-34 -321h-148z" />
    <glyph glyph-name="epsilontonos" unicode="&#x3ad;" horiz-adv-x="1080" 
d="M956 189v-153q-165 -61 -319 -61q-241 0 -383.5 154.5t-142.5 415.5q0 270 142 418t402 148q140 0 289 -37v-161q-181 49 -305 49q-139 0 -223.5 -84t-96.5 -236h563v-149h-563q24 -370 352 -370q135 0 285 66zM552 1283l-34 321h216l-34 -321h-148z" />
    <glyph glyph-name="etatonos" unicode="&#x3ae;" horiz-adv-x="1274" 
d="M201 0v753q0 182 -66 333h220q27 -88 43 -206q175 230 382 230q159 0 234 -97.5t75 -303.5v-1104h-197v1080q0 240 -178 240q-174 0 -316 -216v-709h-197zM590 1283l-34 321h216l-34 -321h-148z" />
    <glyph glyph-name="iotatonos" unicode="&#x3af;" horiz-adv-x="753" 
d="M703 17q-92 -42 -193 -42q-168 0 -240.5 94.5t-72.5 312.5v704h197v-685q0 -152 35.5 -215t121.5 -63q73 0 152 42v-148zM222 1283l-34 321h216l-34 -321h-148z" />
    <glyph glyph-name="upsilondieresistonos" unicode="&#x3b0;" horiz-adv-x="1234" 
d="M185 1086h197v-543q0 -246 50.5 -333t191.5 -87q140 0 218 100t78 279q0 140 -42.5 301.5t-111.5 282.5h214q118 -267 118 -558q0 -251 -134 -402t-357 -151q-193 0 -304 107q-68 65 -93 154.5t-25 264.5v585zM227 1283v173h173v-173h-173zM844 1283v173h173v-173h-173z
M557 1283l-34 321h198l-34 -321h-130z" />
    <glyph glyph-name="alpha" unicode="&#x3b1;" horiz-adv-x="1421" 
d="M989 716q71 191 106 370h184q-53 -228 -215 -542l21 -48q12 -29 61 -133q30 -64 70 -152q60 -137 98 -211h-210q-11 25 -14 30l-45 104l-41 96l-32 77l-16 37q-93 -204 -187 -286.5t-236 -82.5q-182 0 -291.5 142.5t-109.5 379.5q0 277 125.5 445.5t332.5 168.5
q138 0 220 -81t179 -314zM888 504l-49 111q-90 206 -145.5 276.5t-125.5 70.5q-99 0 -162.5 -122t-63.5 -311q0 -183 59.5 -294.5t157.5 -111.5q85 0 156 82t173 299z" />
    <glyph glyph-name="beta" unicode="&#x3b2;" horiz-adv-x="1234" 
d="M197 -395v1449q0 260 117 405t326 145q172 0 278 -90t106 -237q0 -236 -271 -398q179 -57 280.5 -176.5t101.5 -273.5q0 -199 -137.5 -326.5t-352.5 -127.5q-129 0 -251 42v-412h-197zM468 913h36q129 0 225.5 104.5t96.5 243.5q0 89 -54 142t-145 53q-233 0 -233 -371
v-897q143 -65 253 -65q121 0 205.5 87.5t84.5 210.5q0 156 -117 250t-313 94h-39v148z" />
    <glyph glyph-name="gamma" unicode="&#x3b3;" horiz-adv-x="1146" 
d="M474 106q-40 175 -183.5 467.5t-296.5 512.5h227q223 -338 366 -747q118 310 294 597l77 127q2 2 14 23h181q-236 -336 -486 -920l-18 -42q38 -105 38 -234q0 -127 -63 -285h-150l-11 33q-42 133 -42 213q0 85 53 255z" />
    <glyph glyph-name="delta" unicode="&#x3b4;" horiz-adv-x="1209" 
d="M487 1000q-35 24 -45 30l-102 65q-192 123 -192 241q0 128 127 198t361 70q96 0 232 -23l39 -6v-164q-162 45 -307 45q-114 0 -185.5 -28.5t-71.5 -74.5q0 -37 93 -99l100 -67q10 -7 93 -57l94 -58q204 -124 290 -252t86 -308q0 -241 -136.5 -389t-358.5 -148
q-217 0 -355 144t-138 371q0 362 376 510zM639 908l-22 -9q-296 -124 -296 -412q0 -161 81 -262.5t209 -101.5q121 0 199 105.5t78 269.5q0 143 -55 233.5t-194 176.5z" />
    <glyph glyph-name="epsilon" unicode="&#x3b5;" horiz-adv-x="1080" 
d="M956 189v-153q-165 -61 -319 -61q-241 0 -383.5 154.5t-142.5 415.5q0 270 142 418t402 148q140 0 289 -37v-161q-181 49 -305 49q-139 0 -223.5 -84t-96.5 -236h563v-149h-563q24 -370 352 -370q135 0 285 66z" />
    <glyph glyph-name="zeta" unicode="&#x3b6;" horiz-adv-x="1289" 
d="M666 -409v161q123 -23 199 -23q251 0 251 158q0 70 -46.5 91.5t-196.5 21.5h-119q-281 0 -419 124t-138 378q0 169 80 364.5t208 336.5q-54 -4 -78 -4q-172 0 -364 70v175q228 -119 495 -119l69 1q304 258 588 278l47 -135q-100 -99 -255.5 -170.5t-320.5 -95.5
q-259 -354 -259 -691q0 -182 88 -260.5t292 -78.5h89q221 0 311 -57.5t90 -198.5q0 -336 -479 -336q-60 0 -132 10z" />
    <glyph glyph-name="eta" unicode="&#x3b7;" horiz-adv-x="1274" 
d="M201 0v753q0 182 -66 333h220q27 -88 43 -206q175 230 382 230q159 0 234 -97.5t75 -303.5v-1104h-197v1080q0 240 -178 240q-174 0 -316 -216v-709h-197z" />
    <glyph glyph-name="theta" unicode="&#x3b8;" horiz-adv-x="1258" 
d="M136 789q0 395 127 605t367 210q239 0 366 -210t127 -604q0 -395 -127 -605t-366 -210q-244 0 -369 206.5t-125 607.5zM340 876h579q0 254 -81 417t-209 163q-127 0 -208 -163t-81 -417zM919 728h-579q0 -274 79 -439.5t209 -165.5q128 0 209.5 169.5t81.5 435.5z" />
    <glyph glyph-name="iota" unicode="&#x3b9;" horiz-adv-x="753" 
d="M703 17q-92 -42 -193 -42q-168 0 -240.5 94.5t-72.5 312.5v704h197v-685q0 -152 35.5 -215t121.5 -63q73 0 152 42v-148z" />
    <glyph glyph-name="kappa" unicode="&#x3ba;" horiz-adv-x="1117" 
d="M197 0v1086h197v-532l102 126l95 118q141 176 222 232t192 56v-178q-22 3 -35 3q-51 0 -112 -52t-188 -203l-62 -73l447 -583h-238l-423 554v-554h-197z" />
    <glyph glyph-name="lambda" unicode="&#x3bb;" horiz-adv-x="1195" 
d="M499 985l-100 230q-49 113 -102 152t-157 39h-29v173h37q193 0 275.5 -58t168.5 -256l356 -812q101 -230 235 -453h-222q-99 163 -185 358l-185 418l-356 -776h-190z" />
    <glyph glyph-name="uni03BC" unicode="&#x3bc;" horiz-adv-x="1283" 
d="M197 -395v1481h197v-716q0 -210 182 -210q165 0 312 222v704h197v-755q0 -185 59 -331h-216q-21 75 -40 204q-140 -229 -316 -229q-102 0 -178 50v-420h-197z" />
    <glyph glyph-name="nu" unicode="&#x3bd;" horiz-adv-x="1124" 
d="M459 0q-77 245 -215 571t-244 515h208q42 -69 117 -236l90 -201q87 -194 160 -414l13 -40q271 495 271 740q0 88 -25 151h195q15 -51 15 -114q0 -120 -111.5 -400t-275.5 -572h-198z" />
    <glyph glyph-name="xi" unicode="&#x3be;" horiz-adv-x="1178" 
d="M495 837q-122 47 -197.5 141.5t-75.5 200.5q0 89 74 191q-142 0 -308 67v161q168 -80 426 -98l45 -4q181 108 374 108q68 0 142 -13l30 -95q-174 -128 -442 -128l-75 2q-68 -79 -68 -174q0 -139 116 -223.5t308 -84.5h131v-148h-136q-150 0 -221.5 -17.5t-145.5 -72.5
q-126 -95 -126 -239q0 -238 308 -238h99q221 0 311 -57.5t90 -198.5q0 -336 -479 -336q-59 0 -132 10v161q123 -23 199 -23q251 0 251 158q0 70 -46.5 91.5t-196.5 21.5h-85q-269 0 -399 118t-130 285q0 138 95.5 253.5t263.5 180.5z" />
    <glyph glyph-name="omicron" unicode="&#x3bf;" horiz-adv-x="1257" 
d="M622 -25q-233 0 -372 154.5t-139 413.5q0 262 139.5 414.5t378.5 152.5t378.5 -152.5t139.5 -412.5q0 -266 -140 -418t-385 -152zM625 123q313 0 313 422q0 417 -309 417q-308 0 -308 -419q0 -199 80 -309.5t224 -110.5z" />
    <glyph glyph-name="pi" unicode="&#x3c0;" horiz-adv-x="1598" 
d="M376 0v925h-41q-131 0 -261 -70v181q117 50 283 50h1167v-161h-247v-630q0 -168 77 -295h-209q-66 144 -66 303v622h-505v-925h-198z" />
    <glyph glyph-name="rho" unicode="&#x3c1;" horiz-adv-x="1246" 
d="M185 -395v812q0 693 500 693q214 0 332 -122.5t118 -344.5q0 -278 -156.5 -460.5t-395.5 -182.5q-107 0 -201 35v-430h-197zM382 226q95 -78 213 -78q154 0 248.5 127t94.5 334q0 163 -75 258t-203 95q-278 0 -278 -457v-279z" />
    <glyph glyph-name="sigma1" unicode="&#x3c2;" horiz-adv-x="1171" 
d="M1030 1088v-153q-104 28 -219 28q-238 0 -367.5 -125.5t-129.5 -355.5q0 -162 86.5 -235.5t275.5 -73.5h70q220 0 310.5 -57.5t90.5 -198.5q0 -336 -480 -336q-59 0 -131 10v161q122 -23 198 -23q252 0 252 158q0 70 -46.5 91.5t-196.5 21.5h-96q-257 0 -396.5 122
t-139.5 346q0 275 202.5 458.5t506.5 183.5q119 0 210 -22z" />
    <glyph glyph-name="sigma" unicode="&#x3c3;" horiz-adv-x="1392" 
d="M791 1086h625v-173h-376q107 -170 107 -369q0 -263 -139 -416t-379 -153q-239 0 -378.5 153t-139.5 415q0 260 139 413.5t376 153.5q66 0 165 -24zM625 123q313 0 313 422q0 417 -309 417q-308 0 -308 -419q0 -199 80 -309.5t224 -110.5z" />
    <glyph glyph-name="tau" unicode="&#x3c4;" horiz-adv-x="1104" 
d="M515 0q-41 92 -54.5 176t-13.5 251v486h-157q-138 0 -250 -50v183q106 40 264 40h760v-173h-419v-596q0 -196 79 -317h-209z" />
    <glyph glyph-name="upsilon" unicode="&#x3c5;" horiz-adv-x="1234" 
d="M185 1086h197v-543q0 -246 50.5 -333t191.5 -87q140 0 218 100t78 279q0 140 -42.5 301.5t-111.5 282.5h214q118 -267 118 -558q0 -251 -134 -402t-357 -151q-193 0 -304 107q-68 65 -93 154.5t-25 264.5v585z" />
    <glyph glyph-name="phi" unicode="&#x3c6;" horiz-adv-x="1579" 
d="M697 -395v427q-269 0 -427.5 138t-158.5 371t158.5 370t427.5 137v531h185v-531q269 0 427.5 -137t158.5 -370t-158.5 -371t-427.5 -138v-427h-185zM697 898q-189 -9 -289 -101t-100 -257q0 -161 107 -259.5t282 -98.5v716zM882 898v-716q175 0 282 98.5t107 259.5
q0 165 -100 257t-289 101z" />
    <glyph glyph-name="chi" unicode="&#x3c7;" horiz-adv-x="1123" 
d="M451 363l-201 359q-38 67 -44 78l-69 114q-66 109 -115 172h229q88 -121 189 -301l55 -99l70 -125l308 525h171l-396 -675l246 -443l66 -109l69 -113q35 -58 91 -141h-227l-14 21q-128 198 -181 293l-165 295l-353 -609h-173z" />
    <glyph glyph-name="psi" unicode="&#x3c8;" horiz-adv-x="1616" 
d="M716 -395v395l-23 2q-303 34 -427 179t-124 465v153q0 173 -49 287h199q54 -93 54 -274v-153q0 -184 30.5 -278t110.5 -153q107 -80 229 -80v1135h197v-1135q401 20 401 517q0 249 -79 421h197q79 -204 79 -456q0 -340 -220 -517q-122 -98 -378 -113v-395h-197z" />
    <glyph glyph-name="omega" unicode="&#x3c9;" horiz-adv-x="1838" 
d="M919 287q-126 -312 -362 -312q-196 0 -321 151.5t-125 388.5q0 139 47.5 298t122.5 273h205q-80 -115 -132.5 -271.5t-52.5 -280.5q0 -172 72.5 -285t182.5 -113q99 0 172.5 89t100.5 241q-47 123 -47 251q0 140 47 264h181q46 -124 46 -264q0 -128 -46 -251
q26 -152 99.5 -241t172.5 -89q110 0 183 113.5t73 284.5q0 124 -53 280.5t-133 271.5h205q75 -114 122.5 -273t47.5 -298q0 -238 -125 -389t-321 -151q-236 0 -362 312z" />
    <glyph glyph-name="iotadieresis" unicode="&#x3ca;" horiz-adv-x="753" 
d="M703 17q-92 -42 -193 -42q-168 0 -240.5 94.5t-72.5 312.5v704h197v-685q0 -152 35.5 -215t121.5 -63q73 0 152 42v-148zM12 1283v173h173v-173h-173zM407 1283v173h173v-173h-173z" />
    <glyph glyph-name="upsilondieresis" unicode="&#x3cb;" horiz-adv-x="1234" 
d="M185 1086h197v-543q0 -246 50.5 -333t191.5 -87q140 0 218 100t78 279q0 140 -42.5 301.5t-111.5 282.5h214q118 -267 118 -558q0 -251 -134 -402t-357 -151q-193 0 -304 107q-68 65 -93 154.5t-25 264.5v585zM309 1283v173h173v-173h-173zM704 1283v173h173v-173h-173z
" />
    <glyph glyph-name="omicrontonos" unicode="&#x3cc;" horiz-adv-x="1258" 
d="M622 -25q-233 0 -372 154.5t-139 413.5q0 262 139.5 414.5t378.5 152.5t378.5 -152.5t139.5 -412.5q0 -266 -140 -418t-385 -152zM625 123q313 0 313 422q0 417 -309 417q-308 0 -308 -419q0 -199 80 -309.5t224 -110.5zM555 1283l-34 321h216l-34 -321h-148z" />
    <glyph glyph-name="upsilontonos" unicode="&#x3cd;" horiz-adv-x="1234" 
d="M185 1086h197v-543q0 -246 50.5 -333t191.5 -87q140 0 218 100t78 279q0 140 -42.5 301.5t-111.5 282.5h214q118 -267 118 -558q0 -251 -134 -402t-357 -151q-193 0 -304 107q-68 65 -93 154.5t-25 264.5v585zM538 1283l-34 321h216l-34 -321h-148z" />
    <glyph glyph-name="omegatonos" unicode="&#x3ce;" horiz-adv-x="1838" 
d="M919 287q-126 -312 -362 -312q-196 0 -321 151.5t-125 388.5q0 139 47.5 298t122.5 273h205q-80 -115 -132.5 -271.5t-52.5 -280.5q0 -172 72.5 -285t182.5 -113q99 0 172.5 89t100.5 241q-47 123 -47 251q0 140 47 264h181q46 -124 46 -264q0 -128 -46 -251
q26 -152 99.5 -241t172.5 -89q110 0 183 113.5t73 284.5q0 124 -53 280.5t-133 271.5h205q75 -114 122.5 -273t47.5 -298q0 -238 -125 -389t-321 -151q-236 0 -362 312zM846 1283l-34 321h216l-34 -321h-148z" />
    <glyph glyph-name="uni0401" unicode="&#x401;" horiz-adv-x="1110" 
d="M191 0v1480h827v-157h-617v-475h517v-155h-517v-536h660v-157h-870zM344 1605v173h173v-173h-173zM739 1605v173h173v-173h-173z" />
    <glyph glyph-name="uni0402" unicode="&#x402;" horiz-adv-x="1628" 
d="M740 824q175 132 364 132q194 0 322 -130t128 -328q0 -218 -134.5 -364t-335.5 -146q-60 0 -110 12v150q30 -8 69 -8q121 0 205 97t84 237q0 130 -77.5 215.5t-196.5 85.5q-157 0 -318 -143v-634h-210v1323h-518v157h1246v-157h-518v-499z" />
    <glyph glyph-name="uni0403" unicode="&#x403;" horiz-adv-x="1043" 
d="M191 0v1480h828v-160h-618v-1320h-210zM401 1605l241 321h228l-321 -321h-148z" />
    <glyph glyph-name="uni0404" unicode="&#x404;" horiz-adv-x="1234" 
d="M1148 20q-175 -57 -350 -57q-325 0 -509 207.5t-184 574.5q0 352 188 562t502 210q161 0 334 -57v-168q-195 71 -333 71q-192 0 -316.5 -136.5t-150.5 -375.5h559v-154h-559q0 -240 137.5 -404t339.5 -164q169 0 342 85v-194z" />
    <glyph glyph-name="uni0405" unicode="&#x405;" horiz-adv-x="1104" 
d="M100 28v208q250 -116 411 -116q124 0 199.5 65t75.5 171q0 87 -49.5 148t-182.5 136l-102 59q-189 108 -266.5 203.5t-77.5 222.5q0 171 124 281.5t316 110.5q171 0 361 -57v-192q-234 92 -349 92q-109 0 -180 -58t-71 -146q0 -74 52 -131t190 -136l106 -60
q192 -109 268 -206t76 -233q0 -193 -142.5 -310t-377.5 -117q-149 0 -381 65z" />
    <glyph glyph-name="uni0406" unicode="&#x406;" horiz-adv-x="590" 
d="M190 0v1480h210v-1480h-210z" />
    <glyph glyph-name="uni0407" unicode="&#x407;" horiz-adv-x="590" 
d="M190 0v1480h210v-1480h-210zM12 1605v173h173v-173h-173zM407 1605v173h173v-173h-173z" />
    <glyph glyph-name="uni0408" unicode="&#x408;" horiz-adv-x="637" 
d="M-184 -275v186q120 -39 212 -39q120 0 167.5 68.5t47.5 239.5v1300h210v-1293q0 -483 -457 -483q-70 0 -180 21z" />
    <glyph glyph-name="uni0409" unicode="&#x409;" horiz-adv-x="2011" 
d="M1246 154h75q212 0 309 67.5t97 215.5q0 134 -89 194t-289 60h-103v-537zM31 0v185q215 30 282 229q70 207 70 972v94h863v-635h114q288 0 408 -75q169 -107 169 -320q0 -246 -193 -367q-131 -83 -439 -83h-269v1326h-444v-33q0 -753 -110 -1006.5t-451 -286.5z" />
    <glyph glyph-name="uni040A" unicode="&#x40a;" horiz-adv-x="1981" 
d="M191 0v1480h210v-624h605v624h210v-635h113q289 0 408 -75q170 -108 170 -319q0 -247 -193 -368q-132 -83 -439 -83h-269v699h-605v-699h-210zM1216 154h75q212 0 309 67.5t97 215.5q0 134 -89.5 194t-288.5 60h-103v-537z" />
    <glyph glyph-name="uni040B" unicode="&#x40b;" horiz-adv-x="1561" 
d="M1117 1480v-157h-444v-488q164 140 383 140q198 0 317 -120q63 -63 85.5 -140t22.5 -225v-490h-210v485q0 172 -59 244.5t-200 72.5q-192 0 -339 -154v-648h-210v1323h-444v157h1098z" />
    <glyph glyph-name="uni040C" unicode="&#x40c;" horiz-adv-x="1214" 
d="M401 685v-685h-210v1480h210v-639h11q82 0 124 40.5t146 217.5l63 108l52 92q59 101 119 141.5t150 40.5l26 -1v-154q-11 1 -17 1q-77 0 -161 -151l-39 -71l-31 -54q-76 -136 -117 -187t-104 -90q108 -36 168.5 -103.5t150.5 -251.5l51 -103q9 -19 56 -117
q53 -113 103 -199h-222l-16 31l-65 131l-84 172q-129 262 -262 351h-102zM475 1605l241 321h228l-321 -321h-148z" />
    <glyph glyph-name="uni040E" unicode="&#x40e;" horiz-adv-x="1314" 
d="M584 470l-510 1010h235l397 -786l430 786h196l-608 -1112q-122 -225 -229 -296.5t-319 -71.5h-39v173h41q148 0 221.5 46.5t152.5 190.5zM374 1901h123q32 -148 210 -148t210 148h123q-15 -134 -106 -215t-227 -81t-226.5 80.5t-106.5 215.5z" />
    <glyph glyph-name="uni040F" unicode="&#x40f;" horiz-adv-x="1506" 
d="M191 0v1480h210v-1323h704v1323h210v-1480h-464v-296h-197v296h-463z" />
    <glyph glyph-name="uni0410" unicode="&#x410;" horiz-adv-x="1413" 
d="M17 0l587 1480h208l578 -1480h-227l-161 410h-627l-163 -410h-195zM436 566h505l-252 638z" />
    <glyph glyph-name="uni0411" unicode="&#x411;" horiz-adv-x="1191" 
d="M191 0v1480h827v-157h-617v-478h113q289 0 408 -75q170 -108 170 -319q0 -247 -193 -368q-132 -83 -439 -83h-269zM401 154h74q213 0 310 67.5t97 214.5q0 135 -89.5 195t-288.5 60h-103v-537z" />
    <glyph glyph-name="uni0412" unicode="&#x412;" horiz-adv-x="1178" 
d="M191 0v1480h384q222 0 340.5 -84t118.5 -242q0 -269 -304 -383q363 -111 363 -401q0 -130 -80 -231q-61 -77 -147 -108t-239 -31h-436zM399 157h43q231 0 299 29q130 55 130 204q0 132 -118 219.5t-295 87.5h-59v-540zM399 830h67q168 0 260.5 72t92.5 203
q0 218 -338 218h-82v-493z" />
    <glyph glyph-name="uni0413" unicode="&#x413;" horiz-adv-x="1043" 
d="M191 0v1480h828v-160h-618v-1320h-210z" />
    <glyph glyph-name="uni0414" unicode="&#x414;" horiz-adv-x="1561" 
d="M74 -296v481h117q165 264 230.5 521.5t65.5 636.5v137h808v-1295h204v-481h-204v296h-1017v-296h-204zM1086 185v1141h-389v-24q0 -655 -265 -1117h654z" />
    <glyph glyph-name="uni0415" unicode="&#x415;" horiz-adv-x="1110" 
d="M191 0v1480h827v-157h-617v-475h517v-155h-517v-536h660v-157h-870z" />
    <glyph glyph-name="uni0416" unicode="&#x416;" horiz-adv-x="1673" 
d="M936 697v-697h-198v697h-86q-92 -46 -144 -141q-71 -130 -178 -408q-42 -111 -58 -148h-216l22 50q60 135 109 255l47 112q74 180 136 254t167 107q-55 32 -90 80.5t-101 184.5l-37 78q-63 129 -99 167t-95 38v154l21 1q103 0 172.5 -63.5t154.5 -234.5l31 -64l40 -81
q60 -120 97.5 -156.5t106.5 -39.5v638h198v-638q70 8 110 46t94 150q27 54 40 81l31 64q85 171 154.5 234.5t172.5 63.5l21 -1v-154q-59 0 -95 -38t-99 -167l-37 -78q-66 -136 -101 -184.5t-90 -80.5q105 -33 167 -107t136 -254l46 -112q50 -120 110 -255l22 -50h-216
q-17 38 -59 148q-105 276 -177 408q-52 95 -144 141h-86z" />
    <glyph glyph-name="uni0417" unicode="&#x417;" horiz-adv-x="1107" 
d="M65 25v185q233 -86 403 -86q151 0 241.5 76t90.5 202q0 152 -119 231.5t-348 79.5h-31v148h29q205 0 318 74.5t113 210.5q0 216 -305 216q-159 0 -367 -77v170q191 62 379 62q243 0 376 -92.5t133 -262.5q0 -263 -322 -358q173 -28 269.5 -129.5t96.5 -253.5
q0 -195 -158.5 -326.5t-392.5 -131.5q-210 0 -406 62z" />
    <glyph glyph-name="uni0418" unicode="&#x418;" horiz-adv-x="1517" 
d="M191 0v1480h210v-1178l715 1178h210v-1480h-210v1178l-715 -1178h-210z" />
    <glyph glyph-name="uni0419" unicode="&#x419;" horiz-adv-x="1517" 
d="M191 0v1480h210v-1178l715 1178h210v-1480h-210v1178l-715 -1178h-210zM415 1901h123q32 -148 210 -148t210 148h123q-15 -134 -106 -215t-227 -81t-226.5 80.5t-106.5 215.5z" />
    <glyph glyph-name="uni041A" unicode="&#x41a;" horiz-adv-x="1214" 
d="M401 685v-685h-210v1480h210v-639h11q82 0 124 40.5t146 217.5l63 108l52 92q59 101 119 141.5t150 40.5l26 -1v-154q-11 1 -17 1q-77 0 -161 -151l-39 -71l-31 -54q-76 -136 -117 -187t-104 -90q108 -36 168.5 -103.5t150.5 -251.5l51 -103q9 -19 56 -117
q53 -113 103 -199h-222l-16 31l-65 131l-84 172q-129 262 -262 351h-102z" />
    <glyph glyph-name="uni041B" unicode="&#x41b;" horiz-adv-x="1437" 
d="M31 0v185q215 30 282 229q70 207 70 972v94h863v-1480h-210v1326h-444v-33q0 -753 -110 -1006.5t-451 -286.5z" />
    <glyph glyph-name="uni041C" unicode="&#x41c;" horiz-adv-x="1763" 
d="M191 0v1480h291l410 -1145l422 1145h260v-1480h-196v1204l-408 -1105h-203l-396 1108v-1207h-180z" />
    <glyph glyph-name="uni041D" unicode="&#x41d;" horiz-adv-x="1505" 
d="M191 0v1480h210v-624h704v624h210v-1480h-210v699h-704v-699h-210z" />
    <glyph glyph-name="uni041E" unicode="&#x41e;" horiz-adv-x="1591" 
d="M787 -37q-308 0 -495.5 213.5t-187.5 564.5q0 353 188.5 564.5t503.5 211.5q314 0 503 -211t189 -563q0 -359 -189 -569.5t-512 -210.5zM790 120q227 0 351 163.5t124 461.5q0 289 -124.5 452t-344.5 163q-221 0 -345 -163.5t-124 -454.5q0 -290 123 -456t340 -166z" />
    <glyph glyph-name="uni041F" unicode="&#x41f;" horiz-adv-x="1505" 
d="M191 0v1480h1124v-1480h-210v1323h-704v-1323h-210z" />
    <glyph glyph-name="uni0420" unicode="&#x420;" horiz-adv-x="1133" 
d="M191 0v1480h403q268 0 385 -90.5t117 -297.5q0 -236 -160 -370t-444 -134h-93v-588h-208zM399 747h85q187 0 289 86t102 243q0 133 -80 190t-267 57h-129v-576z" />
    <glyph glyph-name="uni0421" unicode="&#x421;" horiz-adv-x="1417" 
d="M1303 76q-219 -113 -478 -113q-345 0 -533 202.5t-188 573.5q0 370 191.5 574t539.5 204q199 0 466 -65v-197q-304 105 -469 105q-241 0 -373 -163t-132 -460q0 -283 141 -446.5t385 -163.5q210 0 450 129v-180z" />
    <glyph glyph-name="uni0422" unicode="&#x422;" horiz-adv-x="1294" 
d="M543 0v1323h-525v157h1260v-157h-525v-1323h-210z" />
    <glyph glyph-name="uni0423" unicode="&#x423;" horiz-adv-x="1314" 
d="M584 470l-510 1010h235l397 -786l430 786h196l-608 -1112q-122 -225 -229 -296.5t-319 -71.5h-39v173h41q148 0 221.5 46.5t152.5 190.5z" />
    <glyph glyph-name="uni0424" unicode="&#x424;" horiz-adv-x="1419" 
d="M611 0v222h-19q-215 0 -372.5 152.5t-157.5 360.5q0 222 157.5 372t391.5 150v223h197v-223q234 0 391.5 -150t157.5 -372q0 -209 -157.5 -361t-374.5 -152h-17v-222h-197zM611 1104q-162 -11 -250.5 -108.5t-88.5 -265.5q0 -155 95 -254.5t244 -99.5v728zM808 1104v-728
q149 0 244.5 99.5t95.5 254.5q0 168 -88.5 265.5t-251.5 108.5z" />
    <glyph glyph-name="uni0425" unicode="&#x425;" horiz-adv-x="1282" 
d="M16 0l491 743l-467 737h248l356 -558l374 558h198l-473 -715l485 -765h-248l-376 587l-389 -587h-199z" />
    <glyph glyph-name="uni0426" unicode="&#x426;" horiz-adv-x="1574" 
d="M191 0v1480h210v-1295h704v1295h210v-1295h197v-481h-197v296h-1124z" />
    <glyph glyph-name="uni0427" unicode="&#x427;" horiz-adv-x="1289" 
d="M888 0v596q-161 -90 -369 -90q-214 0 -332 120q-62 64 -84.5 140.5t-22.5 223.5v490h210v-484q0 -178 61.5 -248t219.5 -70q174 0 317 89v713h210v-1480h-210z" />
    <glyph glyph-name="uni0428" unicode="&#x428;" horiz-adv-x="1949" 
d="M191 0v1480h210v-1295h469v1295h209v-1295h469v1295h210v-1480h-1567z" />
    <glyph glyph-name="uni0429" unicode="&#x429;" horiz-adv-x="2017" 
d="M191 0v1480h210v-1295h469v1295h209v-1295h469v1295h210v-1295h197v-481h-197v296h-1567z" />
    <glyph glyph-name="uni042A" unicode="&#x42a;" horiz-adv-x="1388" 
d="M414 0v1323h-395v157h605v-635h113q288 0 408 -75q169 -107 169 -320q0 -246 -193 -367q-131 -83 -438 -83h-269zM624 154h74q212 0 309.5 67.5t97.5 214.5q0 135 -89.5 195t-289.5 60h-102v-537z" />
    <glyph glyph-name="uni042B" unicode="&#x42b;" horiz-adv-x="1647" 
d="M191 0v1480h210v-635h113q289 0 408 -75q170 -108 170 -319q0 -247 -193 -368q-132 -83 -439 -83h-269zM401 154h74q213 0 310 67.5t97 214.5q0 135 -89.5 195t-288.5 60h-103v-537zM1246 0v1480h210v-1480h-210z" />
    <glyph glyph-name="uni042C" unicode="&#x42c;" horiz-adv-x="1166" 
d="M191 0v1480h210v-635h113q289 0 408 -75q170 -108 170 -319q0 -247 -193 -368q-132 -83 -439 -83h-269zM401 154h74q213 0 310 67.5t97 214.5q0 135 -89.5 195t-288.5 60h-103v-537z" />
    <glyph glyph-name="uni042D" unicode="&#x42d;" horiz-adv-x="1234" 
d="M86 20v193q195 -77 342 -77q211 0 335.5 146.5t141.5 414.5h-560v154h560q0 226 -127.5 369t-328.5 143q-166 0 -344 -89v167q162 76 364 76q311 0 485.5 -197.5t174.5 -550.5q0 -384 -225 -621q-175 -185 -473 -185q-152 0 -345 57z" />
    <glyph glyph-name="uni042E" unicode="&#x42e;" horiz-adv-x="1977" 
d="M191 0v1480h210v-661h234q23 333 183.5 515.5t430.5 182.5q286 0 451.5 -208.5t165.5 -568.5t-165.5 -568.5t-451.5 -208.5q-269 0 -432.5 186.5t-181.5 512.5h-234v-662h-210zM1244 117q190 0 295 164.5t105 461.5q0 290 -105 455t-290 165t-289.5 -165.5t-104.5 -457.5
q0 -289 104 -456t285 -167z" />
    <glyph glyph-name="uni042F" unicode="&#x42f;" horiz-adv-x="1270" 
d="M869 629h-134q-141 -141 -339 -467q-27 -45 -73 -120l-26 -42h-272q85 99 165 225l43 67l27 41l59 90q115 175 228 245q-155 31 -252.5 143t-97.5 259q0 193 143 317q108 93 403 93h336v-1480h-210v629zM869 1326h-124q-165 0 -245.5 -64.5t-80.5 -196.5q0 -282 379 -282
h71v543z" />
    <glyph glyph-name="uni0430" unicode="&#x430;" horiz-adv-x="1130" 
d="M757 138q-177 -163 -341 -163q-135 0 -224 84.5t-89 213.5q0 178 149.5 273.5t429.5 95.5h46v131q0 189 -194 189q-156 0 -337 -96v163q199 81 373 81q182 0 268.5 -82t86.5 -255v-492q0 -169 104 -169q13 0 38 4l14 -109q-67 -32 -148 -32q-138 0 -176 163zM728 245v281
l-66 2q-162 0 -262 -61.5t-100 -161.5q0 -71 50 -120t122 -49q123 0 256 109z" />
    <glyph glyph-name="uni0431" unicode="&#x431;" horiz-adv-x="1221" 
d="M308 847q152 239 397 239q186 0 299.5 -147t113.5 -387q0 -259 -140 -418t-368 -159q-499 0 -499 730q0 459 138.5 666.5t444.5 207.5h42q147 0 264 53v-159q-93 -42 -241 -42h-24q-218 0 -310.5 -126.5t-116.5 -457.5zM310 710l-1 -35q0 -552 312 -552q132 0 209.5 113
t77.5 304q0 367 -257 367q-181 0 -341 -197z" />
    <glyph glyph-name="uni0432" unicode="&#x432;" horiz-adv-x="1075" 
d="M197 0v1086h378q344 0 344 -236q0 -199 -208 -283q252 -81 252 -293q0 -129 -93 -201.5t-256 -72.5h-417zM393 148h82q167 0 224 29.5t57 114.5q0 91 -74.5 147.5t-195.5 56.5h-93v-348zM393 626h99q225 0 225 183q0 129 -213 129h-111v-312z" />
    <glyph glyph-name="uni0433" unicode="&#x433;" horiz-adv-x="1012" 
d="M197 0v1086h790v-173h-593v-913h-197z" />
    <glyph glyph-name="uni0434" unicode="&#x434;" horiz-adv-x="1376" 
d="M74 -247v420h101q115 145 164.5 337t49.5 490v86h703v-913h197v-420h-197v247h-821v-247h-197zM894 173v765h-308v-24q0 -233 -42 -408.5t-135 -332.5h485z" />
    <glyph glyph-name="uni0435" unicode="&#x435;" horiz-adv-x="1141" 
d="M993 35q-198 -60 -339 -60q-240 0 -391.5 159.5t-151.5 413.5q0 247 133.5 405t341.5 158q197 0 304.5 -140t107.5 -398l-1 -61h-685q43 -387 379 -387q123 0 302 66v-156zM321 660h479q0 303 -226 303q-227 0 -253 -303z" />
    <glyph glyph-name="uni0436" unicode="&#x436;" horiz-adv-x="1490" 
d="M844 481v-481h-198v481h-91q-47 -29 -96 -123q-3 -6 -74 -126q-25 -43 -64 -117l-45 -88l-15 -27h-212q45 72 82 144q38 76 44 87l53 98l40 76q59 107 171 145q-79 46 -140 175l-20 42q-7 15 -23 53q-45 107 -116 118v148h12q86 0 137 -47t111 -181l23 -53
q49 -109 85 -148t88 -39l50 -1v469h198v-469l50 1q52 0 87.5 38.5t84.5 148.5l24 53q61 135 111 181.5t137 46.5h11v-148q-70 -11 -115 -118q-16 -38 -23 -53l-20 -42q-61 -129 -141 -175q113 -38 172 -145l39 -76l54 -98q6 -11 44 -87q37 -72 82 -144h-213l-14 27l-46 88
q-38 74 -63 117q-71 120 -74 126q-49 94 -96 123h-91v0z" />
    <glyph glyph-name="uni0437" unicode="&#x437;" horiz-adv-x="984" 
d="M86 22v166q156 -60 321 -60q115 0 186.5 52.5t71.5 136.5q0 198 -316 198h-26v130h33q281 0 281 158q0 157 -252 157q-126 0 -280 -55v159q143 46 316 46q196 0 306.5 -70t110.5 -195q0 -157 -199 -263q233 -71 233 -266q0 -147 -134.5 -244t-337.5 -97q-132 0 -314 47z
" />
    <glyph glyph-name="uni0438" unicode="&#x438;" horiz-adv-x="1283" 
d="M197 0v1086h185v-822l506 822h197v-1086h-185v822l-505 -822h-198z" />
    <glyph glyph-name="uni0439" unicode="&#x439;" horiz-adv-x="1283" 
d="M197 0v1086h185v-822l506 822h197v-1086h-185v822l-505 -822h-198zM347 1579h123q32 -148 210 -148t210 148h123q-15 -134 -106 -215t-227 -81t-226.5 80.5t-106.5 215.5z" />
    <glyph glyph-name="uni043A" unicode="&#x43a;" horiz-adv-x="1100" 
d="M394 463v-463h-197v1086h197v-475l18 1q72 4 104 27t69 94l34 66l22 46q73 152 129.5 196.5t179.5 44.5v-148q-59 0 -88 -27.5t-77 -127.5l-19 -40l-25 -55q-44 -91 -143 -142q81 -28 124 -74t114 -182l40 -76q67 -128 125 -214h-218q-31 61 -63 119l-54 95
q-104 187 -173 249h-99z" />
    <glyph glyph-name="uni043B" unicode="&#x43b;" horiz-adv-x="1203" 
d="M37 0v173q137 7 195 202q70 233 70 604v107h703v-1086h-197v938h-315v-19q0 -453 -110 -689q-108 -230 -346 -230z" />
    <glyph glyph-name="uni043C" unicode="&#x43c;" horiz-adv-x="1487" 
d="M197 0v1086h215l326 -849h2l320 849h229v-1086h-198v825h-2l-282 -751h-190l-264 680h-2v-754h-154z" />
    <glyph glyph-name="uni043D" unicode="&#x43d;" horiz-adv-x="1283" 
d="M197 0v1086h197v-441h494v441h197v-1086h-197v497h-494v-497h-197z" />
    <glyph glyph-name="uni043E" unicode="&#x43e;" horiz-adv-x="1257" 
d="M622 -25q-233 0 -372 154.5t-139 413.5q0 262 139.5 414.5t378.5 152.5t378.5 -152.5t139.5 -412.5q0 -266 -140 -418t-385 -152zM625 123q313 0 313 422q0 417 -309 417q-308 0 -308 -419q0 -199 80 -309.5t224 -110.5z" />
    <glyph glyph-name="uni043F" unicode="&#x43f;" horiz-adv-x="1283" 
d="M197 0v1086h888v-1086h-197v913h-494v-913h-197z" />
    <glyph glyph-name="uni0440" unicode="&#x440;" horiz-adv-x="1288" 
d="M197 -395v1481h197v-204q121 228 363 228q196 0 308.5 -143t112.5 -391q0 -270 -127.5 -435.5t-335.5 -165.5q-193 0 -321 148v-518h-197zM394 259q152 -136 290 -136q136 0 210 113.5t74 319.5q0 382 -252 382q-165 0 -322 -179v-500z" />
    <glyph glyph-name="uni0441" unicode="&#x441;" horiz-adv-x="1049" 
d="M951 33q-191 -58 -330 -58q-220 0 -365 163t-145 411q0 265 143.5 413t400.5 148q127 0 284 -35v-165q-167 49 -272 49q-151 0 -242.5 -113.5t-91.5 -302.5q0 -183 94 -296t246 -113q135 0 278 69v-170z" />
    <glyph glyph-name="uni0442" unicode="&#x442;" horiz-adv-x="1012" 
d="M407 0v913h-395v173h987v-173h-395v-913h-197z" />
    <glyph glyph-name="uni0443" unicode="&#x443;" horiz-adv-x="1077" 
d="M458 67l-446 1019h190l347 -787l311 787h198l-417 -1061q-107 -271 -202 -345.5t-335 -74.5h-23v173h28q151 0 210.5 45.5t126.5 211.5z" />
    <glyph glyph-name="uni0444" unicode="&#x444;" horiz-adv-x="1653" 
d="M728 -395v469q-94 -99 -215 -99q-167 0 -278.5 160.5t-111.5 399.5q0 245 111.5 410.5t277.5 165.5q143 0 216 -99v468h197v-468q73 99 215 99q166 0 277.5 -165.5t111.5 -410.5q0 -239 -111.5 -399.5t-277.5 -160.5q-122 0 -215 99v-469h-197zM728 902q-82 48 -155 48
q-113 0 -183 -114t-70 -297q0 -181 71 -292t186 -111q65 0 151 46v720zM925 902v-720q86 -46 151 -46q115 0 185.5 111t70.5 292q0 183 -70 297t-182 114q-74 0 -155 -48z" />
    <glyph glyph-name="uni0445" unicode="&#x445;" horiz-adv-x="1255" 
d="M88 0l413 561l-401 525h234l317 -418l287 418h192l-376 -551l409 -535h-234l-327 430l-316 -430h-198z" />
    <glyph glyph-name="uni0446" unicode="&#x446;" horiz-adv-x="1369" 
d="M197 0v1086h197v-913h494v913h197v-913h198v-420h-198v247h-888z" />
    <glyph glyph-name="uni0447" unicode="&#x447;" horiz-adv-x="1073" 
d="M678 0v425q-117 -49 -238 -49q-202 0 -281 101.5t-79 362.5v246h197v-284q0 -163 43 -222.5t160 -59.5q110 0 198 50v516h198v-1086h-198z" />
    <glyph glyph-name="uni0448" unicode="&#x448;" horiz-adv-x="1727" 
d="M197 0v1086h197v-913h371v913h197v-913h370v913h197v-1086h-1332z" />
    <glyph glyph-name="uni0449" unicode="&#x449;" horiz-adv-x="1814" 
d="M197 0v1086h197v-913h371v913h197v-913h370v913h197v-913h198v-420h-198v247h-1332z" />
    <glyph glyph-name="uni044A" unicode="&#x44a;" horiz-adv-x="1148" 
d="M315 0v938h-296v148h493v-438h95q449 0 449 -316q0 -332 -478 -332h-263zM512 148h79q255 0 255 181q0 93 -57 132t-195 39h-82v-352z" />
    <glyph glyph-name="uni044B" unicode="&#x44b;" horiz-adv-x="1481" 
d="M197 0v1086h197v-438h95q449 0 449 -316q0 -332 -478 -332h-263zM1085 0v1086h198v-1086h-198zM394 148h79q255 0 255 181q0 93 -57 132t-195 39h-82v-352z" />
    <glyph glyph-name="uni044C" unicode="&#x44c;" horiz-adv-x="1037" 
d="M204 0v1086h197v-438h95q449 0 449 -316q0 -332 -478 -332h-263zM401 148h79q255 0 255 181q0 93 -57 132t-195 39h-82v-352z" />
    <glyph glyph-name="uni044D" unicode="&#x44d;" horiz-adv-x="1042" 
d="M86 28v177q143 -69 312 -69q274 0 328 345h-381v148h381q0 154 -84.5 244t-229.5 90q-130 0 -289 -77v168q146 57 311 57q235 0 366 -144t131 -403q0 -266 -146.5 -427.5t-387.5 -161.5q-151 0 -311 53z" />
    <glyph glyph-name="uni044E" unicode="&#x44e;" horiz-adv-x="1667" 
d="M803 548q0 -425 272 -425q271 0 271 420q0 419 -272 419q-129 0 -200 -108t-71 -306zM597 469h-203v-469h-197v1086h197v-469h203q19 230 146.5 361.5t330.5 131.5q220 0 351 -154t131 -413q0 -260 -131 -414t-351 -154q-204 0 -330 130.5t-147 363.5z" />
    <glyph glyph-name="uni044F" unicode="&#x44f;" horiz-adv-x="1045" 
d="M650 438h-112q-70 -69 -146 -200l-63 -110q-41 -73 -71 -128h-221q70 106 126 212l26 49q94 179 184 231q-102 37 -162.5 117t-60.5 178q0 177 167 257q85 42 313 42h218v-1086h-198v438zM650 938h-55q-235 0 -235 -172q0 -180 246 -180h44v352z" />
    <glyph glyph-name="uni0451" unicode="&#x451;" horiz-adv-x="1141" 
d="M993 35q-198 -60 -339 -60q-240 0 -391.5 159.5t-151.5 413.5q0 247 133.5 405t341.5 158q197 0 304.5 -140t107.5 -398l-1 -61h-685q43 -387 379 -387q123 0 302 66v-156zM321 660h479q0 303 -226 303q-227 0 -253 -303zM309 1283v173h173v-173h-173zM704 1283v173h173
v-173h-173z" />
    <glyph glyph-name="uni0452" unicode="&#x452;" horiz-adv-x="1271" 
d="M197 0v1135h-197v124h197v320h197v-320h374v-124h-374v-425q156 228 382 228q141 0 225 -89.5t84 -241.5v-699q0 -154 -84.5 -241t-236.5 -87q-73 0 -148 21v154q63 -27 125 -27q80 0 113.5 49.5t33.5 167.5v598q0 122 -35.5 173.5t-117.5 51.5q-181 0 -341 -237v-531
h-197z" />
    <glyph glyph-name="uni0453" unicode="&#x453;" horiz-adv-x="1012" 
d="M197 0v1086h790v-173h-593v-913h-197zM395 1283l241 321h228l-321 -321h-148z" />
    <glyph glyph-name="uni0454" unicode="&#x454;" horiz-adv-x="1042" 
d="M956 189v-153q-165 -61 -319 -61q-241 0 -383.5 154.5t-142.5 415.5q0 270 142 418t402 148q140 0 289 -37v-161q-181 49 -305 49q-139 0 -223.5 -84t-96.5 -236h378v-149h-378q24 -370 352 -370q135 0 285 66z" />
    <glyph glyph-name="uni0455" unicode="&#x455;" horiz-adv-x="1044" 
d="M157 38v181q193 -96 336 -96q85 0 141 46t56 115q0 101 -157 167l-115 49q-255 106 -255 305q0 142 100.5 223.5t275.5 81.5q91 0 225 -25l41 -8v-164q-165 49 -262 49q-190 0 -190 -138q0 -89 144 -150l95 -40q161 -68 228 -143.5t67 -188.5q0 -143 -113 -235t-289 -92
q-135 0 -328 63z" />
    <glyph glyph-name="uni0456" unicode="&#x456;" horiz-adv-x="592" 
d="M197 0v1086h197v-1086h-197zM197 1283v197h197v-197h-197z" />
    <glyph glyph-name="uni0457" unicode="&#x457;" horiz-adv-x="592" 
d="M197 0v1086h197v-1086h-197zM12 1283v173h173v-173h-173zM407 1283v173h173v-173h-173z" />
    <glyph glyph-name="uni0458" unicode="&#x458;" horiz-adv-x="623" 
d="M-154 -369v156q138 -58 210 -58q104 0 138 54t34 217v1086h198v-1086q0 -419 -354 -419q-105 0 -226 50zM228 1283v197h198v-197h-198z" />
    <glyph glyph-name="uni0459" unicode="&#x459;" horiz-adv-x="1641" 
d="M37 0v173q137 7 195 202q70 233 70 604v107h703v-438h95q449 0 449 -316q0 -332 -478 -332h-263v938h-315v-19q0 -453 -110 -689q-108 -230 -346 -230zM1005 148h79q255 0 255 181q0 93 -57 132t-195 39h-82v-352z" />
    <glyph glyph-name="uni045A" unicode="&#x45a;" horiz-adv-x="1721" 
d="M197 0v1086h198v-438h493v438h197v-438h95q448 0 448 -316q0 -332 -478 -332h-262v500h-493v-500h-198zM1085 148h79q255 0 255 181q0 93 -57.5 132t-194.5 39h-82v-352z" />
    <glyph glyph-name="uni045B" unicode="&#x45b;" horiz-adv-x="1271" 
d="M394 710q156 228 382 228q141 0 225 -89.5t84 -240.5v-608h-197v543q0 122 -35.5 173.5t-117.5 51.5q-181 0 -341 -237v-531h-197v1135h-197v124h197v295h197v-295h374v-124h-374v-425z" />
    <glyph glyph-name="uni045C" unicode="&#x45c;" horiz-adv-x="1100" 
d="M394 463v-463h-197v1086h197v-475l18 1q72 4 104 27t69 94l34 66l22 46q73 152 129.5 196.5t179.5 44.5v-148q-59 0 -88 -27.5t-77 -127.5l-19 -40l-25 -55q-44 -91 -143 -142q81 -28 124 -74t114 -182l40 -76q67 -128 125 -214h-218q-31 61 -63 119l-54 95
q-104 187 -173 249h-99zM420 1283l241 321h228l-321 -321h-148z" />
    <glyph glyph-name="uni045E" unicode="&#x45e;" horiz-adv-x="1077" 
d="M458 67l-446 1019h190l347 -787l311 787h198l-417 -1061q-107 -271 -202 -345.5t-335 -74.5h-23v173h28q151 0 210.5 45.5t126.5 211.5zM199 1579h123q32 -148 210 -148t210 148h123q-15 -134 -106 -215t-227 -81t-226.5 80.5t-106.5 215.5z" />
    <glyph glyph-name="uni045F" unicode="&#x45f;" horiz-adv-x="1283" 
d="M197 0v1086h197v-913h494v913h197v-1086h-345v-247h-198v247h-345z" />
    <glyph glyph-name="uni048A" unicode="&#x48a;" horiz-adv-x="1257" 
d="M395 1283l241 321h228l-321 -321h-148z" />
    <glyph glyph-name="uni048B" unicode="&#x48b;" horiz-adv-x="1257" 
d="M296 1579h123q32 -148 210 -148t210 148h123q-15 -134 -106 -215t-227 -81t-226.5 80.5t-106.5 215.5z" />
    <glyph glyph-name="uni0490" unicode="&#x490;" horiz-adv-x="1043" 
d="M191 0v1480h630v297h198v-454h-618v-1323h-210z" />
    <glyph glyph-name="uni0491" unicode="&#x491;" horiz-adv-x="1012" 
d="M197 0v1086h592v246h198v-419h-593v-913h-197z" />
    <glyph glyph-name="uni0591" unicode="&#x591;" 
d="M603 -136v-148q185 -28 185 -216v-12h-105v12q0 130 -129 130q-130 0 -130 -130v-12h-105v12q0 188 185 216v148h99z" />
    <glyph glyph-name="uni0592" unicode="&#x592;" 
d="M957 1431v-123h-123v123h123zM711 1431v-123h-124v123h124zM834 1678v-123h-123v123h123z" />
    <glyph glyph-name="uni0593" unicode="&#x593;" 
d="M982 1308l-419 74v86l233 93l-233 92v87l419 74v-93l-303 -25v-37l284 -98l-284 -99v-37l303 -25v-92z" />
    <glyph glyph-name="uni0594" unicode="&#x594;" 
d="M711 1555v123h123v-123h-123zM711 1308v123h123v-123h-123z" />
    <glyph glyph-name="uni0595" unicode="&#x595;" 
d="M822 1555v123h123v-123h-123zM822 1308v123h123v-123h-123zM600 1678h99v-370h-99v370z" />
    <glyph glyph-name="uni0596" unicode="&#x596;" 
d="M736 -512h-50q-181 0 -241.5 68t-60.5 273v35h99v-54l1 -39q0 -116 34 -150t153 -34h65v-99z" />
    <glyph glyph-name="uni0597" unicode="&#x597;" 
d="M467 1395l87 87l88 -87l-88 -87z" />
    <glyph glyph-name="uni0598" unicode="&#x598;" 
d="M981 1661q26 -84 26 -152q0 -90 -41 -145.5t-108 -55.5q-76 0 -117 111l-12 32l-20 54q-17 52 -37 52q-48 0 -48 -114q0 -55 26 -135h-89q-23 65 -23 149q0 204 143 204q70 0 104 -92l15 -38l11 -30l17 -43q18 -47 46 -47q46 0 46 102q0 67 -33 148h94z" />
    <glyph glyph-name="uni0599" unicode="&#x599;" 
d="M59 1777h49q195 0 249 -73t54 -336v-60h-99v79l-1 63q0 146 -33.5 187t-153.5 41h-65v99z" />
    <glyph glyph-name="uni059A" unicode="&#x59a;" 
d="M1597 -512l-505 191l505 191v-111l-337 -80l337 -80v-111z" />
    <glyph glyph-name="uni059B" unicode="&#x59b;" 
d="M418 -512v99h65q118 0 152.5 33.5t34.5 150.5l1 39v54h99v-35q0 -205 -60.5 -273t-242.5 -68h-49zM356 -259v123h124v-123h-124z" />
    <glyph glyph-name="uni059C" unicode="&#x59c;" 
d="M1052 1777v-99h-65q-120 0 -153.5 -41t-33.5 -187l-1 -63v-79h-99v60q0 263 54 336t249 73h49z" />
    <glyph glyph-name="uni059D" unicode="&#x59d;" 
d="M1363 1777v-99h-65q-120 0 -153.5 -41t-33.5 -187l-1 -63v-79h-99v60q0 263 54 336t249 73h49z" />
    <glyph glyph-name="uni059E" unicode="&#x59e;" 
d="M760 1777v-99h-15q-94 0 -124 -25.5t-30 -105.5l-2 -97l-1 -88v-54h-99v35l3 117q0 195 49 256t207 61h12zM1063 1777v-99h-16q-94 0 -123.5 -25.5t-29.5 -105.5l-3 -97l-1 -88v-54h-99v35l3 117q0 195 49.5 256t206.5 61h13z" />
    <glyph glyph-name="uni059F" unicode="&#x59f;" 
d="M605 1512l135 -135l-68 -69l-135 135q-52 -31 -104 -31q-85 0 -145 59.5t-60 144.5q0 84 59.5 143.5t144.5 59.5t144 -59.5t59 -145.5q0 -52 -30 -102zM430 1511q45 0 76 30.5t31 74.5q0 43 -31 74t-74 31q-44 0 -74.5 -30.5t-30.5 -74.5q0 -43 30.5 -74t72.5 -31z
M932 1512q-30 50 -30 102q0 86 59.5 145.5t144.5 59.5t144.5 -59t59.5 -144t-60 -144.5t-146 -59.5q-52 0 -103 31l-135 -135l-69 69zM1105 1511q44 0 75 30.5t31 74.5t-30.5 74.5t-74.5 30.5q-43 0 -74 -31t-31 -74t30.5 -74t73.5 -31z" />
    <glyph glyph-name="uni05A0" unicode="&#x5a0;" 
d="M650 1512q-30 50 -30 102q0 86 59.5 145.5t144.5 59.5t144.5 -59.5t59.5 -143.5q0 -85 -60 -144.5t-146 -59.5q-52 0 -103 31l-135 -135l-69 69zM823 1511q44 0 75 30.5t31 74.5t-30.5 74.5t-74.5 30.5t-74.5 -31t-30.5 -74t30.5 -74t73.5 -31z" />
    <glyph glyph-name="uni05A1" unicode="&#x5a1;" 
d="M649 1308h-99v469h99v-241h59q115 0 151 29.5t36 124.5l1 38v49h99v-36q0 -177 -61.5 -240.5t-235.5 -63.5h-49v-129z" />
    <glyph glyph-name="uni05A3" unicode="&#x5a3;" 
d="M647 -136h111v-376h-408v111h297v265z" />
    <glyph glyph-name="uni05A4" unicode="&#x5a4;" 
d="M807 -512l-506 191l506 191v-111l-338 -80l338 -80v-111z" />
    <glyph glyph-name="uni05A5" unicode="&#x5a5;" 
d="M378 -512v99h65q119 0 153 33.5t34 150.5l1 39v54h99v-35q0 -205 -60.5 -273t-242.5 -68h-49z" />
    <glyph glyph-name="uni05A6" unicode="&#x5a6;" 
d="M267 -512v99h16q105 0 131 36.5t26 186.5v54h99v-35q0 -203 -52.5 -272t-206.5 -69h-13zM570 -512v99h15q106 0 131.5 36.5t25.5 186.5v54h99v-35q0 -203 -52.5 -272t-206.5 -69h-12z" />
    <glyph glyph-name="uni05A7" unicode="&#x5a7;" 
d="M410 -493v78q64 -23 128 -23q72 0 72 34q0 29 -55 45l-46 13q-101 29 -101 96q0 114 162 114q76 0 127 -15v-75q-68 16 -125 16q-73 0 -73 -35q0 -21 39 -32l31 -9l48 -14q85 -25 85 -93q0 -119 -168 -119q-59 0 -124 19z" />
    <glyph glyph-name="uni05A8" unicode="&#x5a8;" 
d="M687 1777h50q195 0 248.5 -73t53.5 -336v-60h-99v79l-1 63q0 146 -33.5 187t-153.5 41h-65v99z" />
    <glyph glyph-name="uni05A9" unicode="&#x5a9;" 
d="M975 1512l134 -135l-68 -69l-135 135q-52 -31 -104 -31q-85 0 -145 59.5t-60 144.5q0 84 59.5 143.5t144.5 59.5t144 -59.5t59 -145.5q0 -52 -29 -102zM799 1511q45 0 76 30.5t31 74.5q0 43 -31 74t-74 31q-44 0 -74.5 -30.5t-30.5 -74.5q0 -43 30.5 -74t72.5 -31z" />
    <glyph glyph-name="uni05AA" unicode="&#x5aa;" 
d="M504 -512v148q-185 29 -185 216v12h105v-12q0 -130 130 -130q129 0 129 130v12h105v-12q0 -188 -185 -216v-148h-99z" />
    <glyph glyph-name="uni05AB" unicode="&#x5ab;" 
d="M902 1309l-505 191l505 191v-111l-337 -80l337 -80v-111z" />
    <glyph glyph-name="uni05AC" unicode="&#x5ac;" 
d="M895 1727h99v-419h-444v98h345v321z" />
    <glyph glyph-name="uni05AD" unicode="&#x5ad;" 
d="M1216 -512h-50q-181 0 -241.5 68t-60.5 273v35h99v-54l1 -39q0 -116 34 -150t153 -34h65v-99z" />
    <glyph glyph-name="uni05AE" unicode="&#x5ae;" 
d="M173 1661q26 -84 26 -152q0 -90 -41 -145.5t-108 -55.5q-76 0 -117 111l-12 32l-20 54q-17 52 -37 52q-48 0 -48 -114q0 -55 26 -135h-89q-23 65 -23 149q0 204 143 204q70 0 104 -92l15 -38l11 -30l17 -43q18 -47 46 -47q46 0 46 102q0 67 -33 148h94z" />
    <glyph glyph-name="uni05AF" unicode="&#x5af;" 
d="M643 1283q-93 0 -158.5 66.5t-65.5 160.5t66 160.5t161 66.5q94 0 160.5 -66t66.5 -161q0 -96 -66.5 -161.5t-163.5 -65.5zM644 1369q60 0 101.5 41t41.5 101q0 58 -41.5 99t-99.5 41q-59 0 -100 -41t-41 -100q0 -58 41 -99.5t98 -41.5z" />
    <glyph glyph-name="uni05B0" unicode="&#x5b0;" 
d="M495 -259v123h123v-123h-123zM495 -506v123h123v-123h-123z" />
    <glyph glyph-name="uni05B1" unicode="&#x5b1;" 
d="M249 -259v123h123v-123h-123zM495 -259v123h124v-123h-124zM372 -506v124h123v-124h-123zM741 -259v123h123v-123h-123zM741 -506v123h123v-123h-123z" />
    <glyph glyph-name="uni05B2" unicode="&#x5b2;" 
d="M154 -234v98h543v-98h-543zM829 -259v123h123v-123h-123zM829 -506v123h123v-123h-123z" />
    <glyph glyph-name="uni05B3" unicode="&#x5b3;" 
d="M162 -234v98h543v-98h-222v-278h-99v278h-222zM829 -259v123h123v-123h-123zM829 -506v123h123v-123h-123z" />
    <glyph glyph-name="uni05B4" unicode="&#x5b4;" 
d="M492 -259v123h123v-123h-123z" />
    <glyph glyph-name="uni05B5" unicode="&#x5b5;" 
d="M369 -259v123h124v-123h-124zM616 -259v123h123v-123h-123z" />
    <glyph glyph-name="uni05B6" unicode="&#x5b6;" 
d="M369 -259v123h123v-123h-123zM615 -259v123h124v-123h-124zM492 -506v124h123v-124h-123z" />
    <glyph glyph-name="uni05B7" unicode="&#x5b7;" 
d="M282 -234v98h543v-98h-543z" />
    <glyph glyph-name="uni05B8" unicode="&#x5b8;" 
d="M282 -234v98h543v-98h-222v-278h-99v278h-222z" />
    <glyph glyph-name="uni05B9" unicode="&#x5b9;" 
d="M-62 1308v123h124v-123h-124z" />
    <glyph glyph-name="uni05BB" unicode="&#x5bb;" 
d="M245 -259v123h123v-123h-123zM492 -382v123h123v-123h-123zM738 -506v124h124v-124h-124z" />
    <glyph glyph-name="uni05BC" unicode="&#x5bc;" 
d="M411 543v148h148v-148h-148z" />
    <glyph glyph-name="uni05BF" unicode="&#x5bf;" 
d="M247 1308v98h790v-98h-790z" />
    <glyph glyph-name="uni05C0" unicode="&#x5c0;" horiz-adv-x="518" 
d="M197 1184h123v-1184h-123v1184z" />
    <glyph glyph-name="uni05D0" unicode="&#x5d0;" horiz-adv-x="1321" 
d="M117 0v37q0 491 231 857q-95 103 -220 199l145 116q282 -222 562 -563q146 186 146 465v73h185v-53q0 -323 -237 -602q176 -209 287 -436l-145 -118q-178 353 -616 811q-153 -211 -153 -678v-108h-185z" />
    <glyph glyph-name="uni05D1" unicode="&#x5d1;" horiz-adv-x="1153" 
d="M37 0l66 197h652v469q0 231 -38.5 276t-233.5 45h-355l66 197h289q282 0 363.5 -87.5t81.5 -393.5v-506h148l-65 -197h-974z" />
    <glyph glyph-name="uni05D2" unicode="&#x5d2;" horiz-adv-x="875" 
d="M166 1039l90 170q214 -79 275.5 -144.5t91.5 -246.5l17 -103l41 -256q51 -314 100 -459h-186q-9 36 -11 43l-21 96q-24 109 -34 170q-146 -159 -414 -334l-76 176q289 163 463 335l-39 223q-22 132 -38 167.5t-67 70.5q-79 54 -192 92z" />
    <glyph glyph-name="uni05D3" unicode="&#x5d3;" horiz-adv-x="1026" 
d="M631 0v987h-619l66 197h942l-66 -197h-150v-987h-173z" />
    <glyph glyph-name="uni05D4" unicode="&#x5d4;" horiz-adv-x="1458" 
d="M77 987l68 197h684q282 0 363.5 -87.5t81.5 -393.5v-703h-173v666q0 230 -38.5 275.5t-233.5 45.5h-752zM398 691v-691h-173v691h173z" />
    <glyph glyph-name="uni05D5" unicode="&#x5d5;" horiz-adv-x="655" 
d="M297 0v716q0 170 -50 227t-235 97l88 169q179 -28 267 -101q61 -50 82 -124t21 -244v-740h-173z" />
    <glyph glyph-name="uni05D6" unicode="&#x5d6;" horiz-adv-x="697" 
d="M165 0v565q0 233 101 355l-247 114l72 175l569 -262l-73 -176l-183 86q-67 -64 -67 -260v-597h-172z" />
    <glyph glyph-name="uni05D7" unicode="&#x5d7;" horiz-adv-x="1458" 
d="M225 0v987h-148l69 197h683q282 0 363.5 -87.5t81.5 -393.5v-703h-173v666q0 230 -38.5 275.5t-233.5 45.5h-431v-987h-173z" />
    <glyph glyph-name="uni05D8" unicode="&#x5d8;" horiz-adv-x="1319" 
d="M260 0l-143 1140l182 69l106 -1012q292 15 467 169t175 397q0 261 -255 261q-60 0 -122 -19l62 190q56 14 106 14q182 0 282 -108.5t100 -306.5q0 -221 -138.5 -412.5t-375.5 -298.5q-185 -83 -446 -83z" />
    <glyph glyph-name="uni05D9" unicode="&#x5d9;" horiz-adv-x="651" 
d="M433 493h-175q53 221 53 343q0 84 -54 124.5t-214 77.5l90 171q201 -35 282 -110.5t81 -228.5q0 -112 -49 -317z" />
    <glyph glyph-name="uni05DA" unicode="&#x5da;" horiz-adv-x="1081" 
d="M711 -296v1283h-680l66 197h787v-1480h-173z" />
    <glyph glyph-name="uni05DB" unicode="&#x5db;" horiz-adv-x="1171" 
d="M62 0l66 197h602q121 226 121 431q0 168 -67 259q-43 58 -107.5 79t-202.5 21h-344l66 197h287q176 0 265 -28t154 -105q115 -137 115 -383q0 -220 -116 -471l-64 -197h-775z" />
    </font>
</defs>
</svg>
